&title=Radiance
&artist=Nhato
&first=0.447
&des=JDJDH
&lv_5=13+
&inote_5=(155)
{16}
,,,,,,5,,2h[16:3],,,8h[16:3],,,5,,
1bxh[8:7]/7bxh[8:2],,,,,,,,3,,,5,,,
7h[8:5],,,,,,,,5,,2h[16:3],,,4h[16:3],,,1,,
2bx/8bx,,4,,7h[8:7]/1,,,,,,,,,,,,
,,,,,,
{24}
2x,3x,4x,
{16}
5x/7bxh[16:3],,,1bxh[16:3],,,4bx,,
8bxh[8:7]/2bxh[8:2],,,,,,,,6,,,4,,,
2h[8:5],,,,,,,,4,,7h[16:3],,,5h[16:3],,,8,,
7bx/1bx,,5,,2h[8:7]/8,,,,,,,,B4,,
B1,,,,C,,,,
6,,1bx/2bx,,,6bx/8bx,,,3bx/4bx,,
1bh[8:7]/7bh[8:2],,,,,,,,3,,,5,,,
7h[8:4],,,,,,,,1,,2h[16:3],,,8h[16:3],,,4,,
2bx/6bx,,1,,8,,,,17,,,,1,,8/2h[8:3],,,,,,,,
3x,4x,5bx/2bx,,,1bx/7bx,,,5bx/6bx,,
8bh[8:7]/2bh[8:2],,,,,,,,6,,,4,,,
2h[8:4],,,,,,,,4,,7h[16:3],,,5h[16:3],,,8,,
8bxz4b[4:6]/5bx-8b[4:6],,,,,,,,,,,,,,,,,,,,,,,,,,,,,,,,
{16}
Ch[16:10]/B2/B3,,,,,,,,
{32}
,,,,D4,D5,D6,D7,D8,D1,D2,D3,
{16}
D4,,
7x-3b[8:1],,,,
{32}
B7,C,B3,,
{16}
1,1,/8-4[8:1],,1,,8,,2,,
{16}
3b/7b,,,,
3,4,2,4,3h[8:1],,5,,6,5,7,5,6h[8:1],,3,4,2,4,3h[8:1],,8-4[8:1],1,8,1,8,,,,
2b/6b,,,,
3,4,3,4,2,4,3,4,1,4,3,4,8,4,3,4,1,4,3,4,2-6[8:1],4,3,4,2,,,,
4b/8b,,,,
6,5,6,5,7,5,6,5,8,5,6,5,1,5,6,5,8,5,6,5,7-3[8:1],5,6,5,7,,,,
5b/1b,,,,
4,5,4,5,3,5,4,5,2,5,4,5,
1bx-5[207.66#6:1],,,1bx,,,3b/7b,,,2b-5[207.66#8:1]/6b-1[207.66#8:1],,,2bx/6bx,,,,
{16}
4/8<5[8:1],,,,28,,3,4,2-6[8:1],4,3,,24,,,,
4/7-4[8:1],,8,1,7,,2,1,3-6[8:1],1,2,,2x/3,,,,
8/1>4[8:1],,,,17,,6,5,7-3[8:1],5,6,,71,,2,,
1/4,,3,4,2,,6,5,7h[16:2],,4,6h[16:2],3,3,5,,
6b/1b-5[8:1],,,,71,,,,4/7-3[8:1],,6,5,7,,1,,
5/2>5[8:1],,1,,82,,6,,1/7-4[8:1],,8,1,7,,3,,
1/8<5[8:1],,7,,82,,3,4,2-6[8:1],4,3,,28,,7,,
58,,6,5,7,,4,,2h[16:2],,5,3h[16:2],,6,4,,
4/8<5[8:1],,,,28,,3,4,2-6[8:1],5,3,,12,,8,,
3/7<4[8:1],,8,1,7,,2,1,3<6[8:1],1,2,,13,,8,,
7/1>4[8:1],,8,,17,,6,5,7-3[8:1],5,6,,71,,2,,
{32}
1bx/4,8x,7x,6x,5x,4x,3x,2x,1x,8x,7x,6x,5x,4x,3x,2x,
{16}
1b-5[207.66#6:1],,,1bx,,,3b/7b,,
{4}
3bh[4:7]/7bh[4:11],,,,,,,,
Ch[4:7],,,
{16}
,,E7,B6,
{4}
B5f,,,,
{4}
1h[8:2],,C/8h[8:2],,C/2h[8:2],,C/7h[8:2],,
C/3h[8:2],,C/6h[8:2],,
{16}
4h[4:1],,,,5h[4:1],,,,3h[16:3],,,2h[16:3],,,1,,
{4}
8h[8:2],,C/1h[8:2],,C/7h[8:2],,C/2h[8:2],,
C/6h[8:2],,C/3h[8:2],,
{16}
5h[4:1],,,,4h[4:1],,,,6h[16:3],,,7h[16:3],,,8,,
{4}
1b,1,E5/1,1,E6/1,1,E7/1,1,
Ch[4:7]/1,1,1,1,2,2,3,3,
{8}
4/8b,8,8,8,38,8,8,8,28,8,8,8,18,8,8,8,
{16}
E1,E2,E3,E4,E5,E6,E7,E8,
{32}
B8,B1,B2,B3,B4,B5,B6,B7,
B8,B1,B2,B3,B4,B5,B6,B7,
{16}
B8,,,,1x/8x,,
{24}
3,5,4,
{16}
6,1,8,,
2b/7b,,,,
{16}
18,,4,5,3,4,2,8,1,,3,4,,6,5,,
18,,5,4,6,5,7,1,8,,6,5,,3,4,,
1,7,5,7,3,7,5,7,1,,3,8,,6,1,,
2,4,3,4,1,4,3,4,2,,8,1,8,,57,,
26,,1,4,3,8,2,7,4,,3,5,,6,4,,
73,,8,5,6,1,7,2,1,,7,5,,2,4,,
3-8[8:1]/7-4[8:1],,,,37,,,,
1,5,2,4,3,,2,,
1,6,5,6,2,6,5,6,1,,3,4,,6,5,,
81,,5,4,6,5,7,1,8,,6,5,,3,4,,
81,,4,5,3,4,2,8,1,,3,4,,6,5,,
8,2,4,2,6,2,4,2,8,,6,1,,3,8,,
7,5,6,5,8,5,6,5,7,,1,8,1,,42,,
73,,4,5,4,,35,,26,,5,4,5,,37,,
2,8,2,8,1,8,1,8,2,7,4,5,3,6,1,,
7b/2b-6b[207.66#8:1],,,2b/7b-1b[207.66#8:1],,,
7b/3b-5b[207.66#8:1],,,3b/6b-2b[207.66#8:1],,,
6b/4bw8b[207.66#8:1],,,4b/Cf,
,,,,2x,7x,2x,7x,
{32}
1w5b[8:1],8,7,6,5,4,3,2,
{16}
1b/C,,,,
{16}
7,1,5,3,6,4,7,1,8q4[8:1],,7,7,8,,6,,
7,5,6,4,5,3,4,2,5p1[8:1],,7,7,5,,8,,
6,2,8,4,5,3,7,1,8x,,3,4,3,,25,,
6/1>4[8:1],,8,,71,,
{24}
8x,7x,6x,
{16}
5b/4b,,,1b/7b,,,3b/5b,,
2,8,4,6,3,5,2,8,1p5[8:1],,2,2,1,,3,,
2,4,3,5,4,6,5,7,4q8[8:1],,2,2,4,,1,,
3,7,1,5,4,6,2,8,1x,,6,5,6,,74,,
3/8<5[8:1],,1,,28,,
{24}
1x,2x,3x,
{16}
4b/5b,,,8b/2b,,,6b/4b,,
{16}
5/1-5[8:1],,7,7,1>4[8:1],,6,6,1<6[8:1],,5,5,1,,5,,
4/8-4[8:1],,2,2,8<5[8:1],,3,3,8>3[8:1],,4,4,8,,4,,
5/1-5[8:1],,7,7,1>7[8:2],,8,,1/8,,,,1,,1h[16:4],,,,
3,3,5,4,6,3,1b/8b,,,4b/5b,,,3b/7b,,
4/2-6[8:1],,8,8,2>5[8:1],,7,7,2<7[8:1],,6,6,2,,6,,
5/7x-3[8:1],,1,1,7<4[8:1],,2,2,7>2[8:1],,3,3,7,,3,,
{16}
4,5,3,6,4,5,2,7,3,6,1,8,2,7,1,8,
2,2,4,4,6,6,8,8,
{32}
2,3,4,5,6,7,8,1,2,3,4,5,6,7,8,1,E6/B6/B7/E8/B8/B1/B2/Cf/E4,E
