&title=Melodiniq
&artist=onoken a.k.a. owl*tree
&first=0.03
&des_1=X CupLid X
&des_2=X CupLid X
&des_3=X CupLid X
&des_4=X CupLid X
&des_5=X CupLid X
&lv_5=14+
&des_6=X CupLid X
&lv_6=15
&des_7=X CupLid X
&lv_7=大概打不了
&des=X CupLid X
&inote_5=(193){4},,,,{1}6<3[4:7],
,7<2[4:7],
{2},,6h[2:1],
5h[2:1],
4h[2:1],3,
{1}2pp4-8>3[2:3]/6pp8-4<7[2:3],
,{32}E1,
E8/E2,E7/Cf/E3,E6/E5/E4,{8}4x/5x<4b[8:27],{1},,,{4},,,5/6h[4:1],
{8}5,6/5h[4:1],,6,{4}4h[1:1]/7<8[4:3],
,,,,4/3h[4:1],
{8}4,3/4h[4:1],,3,{4}5h[1:1]/2>1[4:3],
{8},,,,,,,,3,
3,5,6,6,4,3,3,
5,6,6h[8:1],5h[8:1],4h[8:1],3h[8:1],{4}7,
2v5[4:1],5,6<1[4:1],4,
5p4[2:1],7,8,{8}8,7,
{4}3/6h[1:1],4,5,5,
4h[1:1],5,6,7,
{24}A7,A6,A5,A4,A3,A2,B7,B6,B5,B4,B3,B2,{16}D8,B8,B1,D2,A7,B7,B2,A2,
{4}8h[4:1],{24}3,2,1,8,7,6,3,2,1,8,7,6,{32}4,3,2,1,8,7,6,5,
{8}4/8,7,5/6,4,{16}6,5,7,5,6,5,{8}8,
7/3,2,3/4,5,{16}3,4,2,4,3,4,{8}1,
2/6,{16}7,5,{8}6,5/4,{16}3,4,2,5,{8}1,7,
{16}2,3,4,5,8,7,6,5,1,8,7,6,5/7,4,3,2,
{8}1/7,6,5/3,{16}2,4,{8}3,{16}6,5,6,5,{8}7,
8/2,3,4/6,{16}7,5,{8}6,{16}3,4,3,4,{8}2,
{16}1/7,6,5,4,1,2,3,4,8,1,2,3,4/2,5,6,7,
{8}8/2,2,{16}3,4,3,4,2,5,3,6,4,8,2,6,
{4}5/1>4[8:1],5-2[8:1]*v7[8:1],5<1[8:1],3v6[8:1],
7<4[8:1],2v4[8:1]*-7[8:1],2>3-8[8:1],6,
7/4>1[8:1],8-3[8:1]*v6[8:1],8<4[8:1],2v7[8:1],
6<1[8:1],3v1[8:1]*-6[8:1],3>2-5[8:1],7h[4:1],
1v3[8:1],{8}7,7<4[8:1],,3,{4}1-6[8:1],
{8}5,4v6[8:1],3,2,{2}1<6[8:1]*>4[8:1],
{4}7v5[8:1],{8}2,2>5[8:1],,6,{4}8-3[8:1],
{8}4,5v3[8:1],6,7,8,6h[4:1]/2h[4:1],,,{1}5bp3[2:5]/1bp7[2:5],
,,{4},,,{8},{16}8,
8,
{8}2,2,1,3,4,4,3,5/2,
,7,8,6,5,5,6,4/7,
{24}6,5,4,3,,,{8}5/4,6,7/8,6,4,3/6,
{24}4,5,4,5,4,5,3x,6x,3x,6x,3,6x,{16}4x,5,4x,5,{12}3x,6,3,
{2}6bp4[8:5],{8}3h[4:1],,,2h[8:3],
,4,4<7[16:3],6<1[16:3],8>3[16:3],2>8[8:3],4,3h[4:1],
,,,3>8[16:3],1<6[16:3],7<1[8:3],5,6h[4:1],
,,,6/8,,7,6,5,
{2}3q5[8:5],{8}6h[4:1],,,7h[8:3],
,5,5>2[16:3],3>8[16:3],1<6[16:3],7<1[8:3],5,6h[4:1],
,,,6<1[16:3],8>3[16:3],2>5[16:3],4<7[16:3],3,
,8z4[8:3]*-2v3[8:3],{16},,,,,,,,,,,,2,
6,2,6,{8}2,{16}7,8,7,6,{8}7,{16}1,2,3,4,
7,6,7,6,{8}7,{16}2,1,2,1,{8}2,{16}6,5,{8}7/4,
{16}8,1,8,1,{8}8,{16}3,4,3,2,{8}3,{16}8,7,6,5,
2,3,2,3,{8}2,{16}7,8,7,8,{8}7-4[8:1],5,4,
2,2,3/1,3/1,4/8,8/4,5/7,5/7,
{24}4,3,2,1,8,7,3,2,1,8,7,6,2,1,8,7,6,5,1,8,7,6,5,4,
{1}3/1b,
(196){32}7b/8b,6/1,5/2,4h[32:5]/3h[32:5],{4},{16},,{12}3,3,4,2,3,4,
6,6,5,7-3[8:1],6,5,{4}4h[4:1],{16}5,6,7,8,
{8}1/2,3,4/6,7,7/8,6/1,,3,
4,2,1/5,6,{12}8/7,7/8,6/1,5/2h[4:1],,,{4}6,
{16}1/5,2,3,4,{4}5/7,{16}8/4,7,6,5,
{4}4/2,{16}1/5,2/6,3/7,4/8,{2}5v3[8:1]/1v7[8:1],
{8}2/6,1h[8:1],2h[8:1],3h[8:1],4h[8:1],6h[8:1],7h[8:1],8h[8:1],
1,2,4/7,6,{16}3,4,3,4,{4}2/5-1[8:1],
5b/7,8,{12}6,6,5,7,6,5,
3,3,4,2-6[8:1],3,4,{4}5h[4:1],{16}4,3,2,1,
{8}8/7,6,5/3,2,6/4,1/8,,6,
5,7,8/3,4,{12}5/6,6/5,7/4,8/3h[4:1],{24},,,,{8}7,
6,1/5,6,7/2,3,4/8,3,
{12}6/2v5[8:1],6,7,8,,,8/4,4,3,8/2,8,7,
{8}6/2h[32:1],4h[32:1],3h[24:1],5h[24:1],4h[24:1],6h[24:1],5h[24:1],8b,
,7h[32:1],5h[32:1],6h[24:1],4h[24:1],5h[24:1],3h[24:1],4h[24:1],
(206){16}1b,2,3,4,1,2,3,4,{12}1,1,6,8,8,4,
{16}1,2,3,4,1,8,7,6,3,4,3,4,{24}2,3,4,7,6,5,
{8}1,{16}3,4,{8}2,{16}6,5,{8}7,{16}2,1,{8}3,7/4,
{16}6,5,{8}6,{16}4,5,{8}4,{16}6,5,7,4,6,3,{8}3,
(209){16}8,7,6,5,8,7,6,5,{12}8,8,3,1,1,5,
{16}8,7,6,5,8,1,2,3,6,5,6,5,{24}7,6,5,2,3,4,
{8}8>3[8:1],8,5v2[8:1],5,1<6[8:1],1,4v7[8:1],4,
5<8[8:1],5,2v4[8:1],2,{16}1,8,7,6,3,2,1,8,
(212){8}5,7/1,{4}5/4bh[4:1],{16}7,5,6,5,8,4,5,4,
{12}7,7,5,6,6,4,{24}3,2,1,7,6,5,2,3,4,6,7,8,
(215){8}3-8[8:1],6-4[8:1],3,6,2-6[8:1],6,2V48[4:1],8,
7/2,7,{16}7,6,5,4,1V74[0.2791##0.2791],2,3,4,{8}1,3,
(218)2,2,{32}E4,E5,E6,E7,,,,,{8}8,8,{32}E6,E5,E4,E3,,,,,{8}1-7[8:1],
{16}7,6,{8}1-3[8:1],{16}6,5,{8}1-5[8:1],{16}7,6,{8}1,8,
(221)7,7,{32}E6,E5,E4,E3,,,,,{8}1,1,{32}E4,E5,E6,E7,,,,,{8}8-2[8:1],
{16}2,3,{8}8-6[8:1],{16}3,4,{8}8-4[8:1],{16}2,3,{4}8,
(224){8}2/3,5b/1,,6/5,{4}8v5[8:1]/4b>1[8:1],8b/4b,
{16}8,7,6,5,4/8,1,2,3,4/1,2,3,4,{4}5/8,
(227){8}6/4,6/4,5/3,5/3,{16}2,4,3,5,2,4,3,5,
1,2,6,5,2,3,5,4,1,2,6,5,2,3,5,4,
(230)1b,2,3/7b,6,5/8b,1,2/6b,5,4/1b,2,3/7b,6,{4}5/1bh[4:1],
{24}4bx,5,6,7/2bx,3,4,{8}5/8h[8:1],{24}5bx,4,3,2/7bx,6,5,4/1h[8:1],,,4bx,5,6,7/2bx,3,4,
{1}5/8bw4[4:3],
{4},,,,(236)7b/3b,
5/6h[2:1],5,{8}4,4,
{4}4/7h[8:1],5/6h[8:1],5/8h[8:1],3h[8:1]/5-1[8:1],
5,6/8h[8:1],6/4h[8:1],{8}6/2,6h[4:1]/A3h[4:1]/E4h[4:1]/B4h[4:1],
,,{4}2h[4:1]/A7h[4:1]/E8h[4:1]/B8h[4:1],{8},1h[4:1]/5h[4:1],{24},,,,6/2,7/3,
{4}8/4,4/3h[2:1],4,{8}5,5,
{4}5/2h[8:1],4/3h[8:1],4/1h[8:1],6h[8:1]/4-8[8:1],
4,{8}A1h[8:1],A5h[8:1],A2h[8:1]/B2h[8:1],A6h[8:1]/B6h[8:1],B4h[8:1]/B3h[8:1],8b-3-7-4[8:5],
,,,,,,,,{2}1-5[8:1],
{16}A6,A7,A8,A1,E6,E7,E8,E1,
{8}5,5,2,2,2h[2:1],8,7,6,
{2}5-1[8:1],{16}A3,A2,A1,A8,E4,E3,E2,E1,
{8}4,4,7,7,6h[2:1],5,4-8[8:1],3,
,,{4}2/6,{8}3/5,4,5/7,6,
{16}3,4,3,4,{8}2,5,{16}6,5,6,5,{4}7<4[8:1]*-3[8:1],
{8},,1/8,2,3/7,6,5/1,2,
{1}7v5v7[2:1]/3v1v3[2:1],
(240){32}A1,D2,A2,D3,A3,D4,A4,D5,{4}A5f/D6/E6/B5/E5/8b-4[8:1]*-3[8:1],8,6/2,
{8}1,3,6,4,8/2,6,4,7,
6/2>5[8:1],2,8,7,6<1[8:1],6,2,2,
3,4,4/7,6/5,7,8,{16}2,1,2,1,
{8}3<6[8:1],8,7,7,{12}8h[12:1],5h[12:1],7h[12:1],1h[12:1],4h[12:1],2h[12:1],
{4}6,3/5-1[8:1],5/2>5[8:1],{8}2/8,8,
{16}7,6,7,6,{8}7,{16}2,3,2,3,{8}2,1/7,6,
5/3-5[8:1],3,7-3[8:1],7,1-7[8:1],1,6,6,
{4}5-1[8:1]/3-7[8:1],5/3,{8}6/2,3,4/5,6,
7/1,{16}2,4,{8}3,{16}6,5,{8}7,{16}3,4,{8}2,1/8,
{16}7/3,4,{8}5,{16}6/2,5,{8}4,{16}3/7,4,{8}5,{16}6/2,5,{8}4,
{16}2b/6b,3/5,4,5/3,{4}6/2,{16}3b/7b,6/4,5,6/4,{4}7/3,
{8}8b/1b,1,2/4,4,1/7,7,6/5,5,
{12}8h[12:1],6h[12:1],7h[12:1],4h[12:1],5h[12:1],3h[12:1],7h[12:1],5h[12:1],6h[12:1],2h[12:1],4h[12:1],1h[12:1],
{16}5b,6,{8}8/7h[8:1],{16},,4b,3,{4}1/2h[8:1],{16}8b,7,{8}5/6h[8:1],
{16},,1b,2,{4}4/3h[8:1],{16}6b,5,6,5,6,5,6,5,
{8}6,7,8/1,8/2,3/8-4[8:1],8/4,{4}5/8,
{8}3,2,1/8,1/7,6/1-5[8:1],1/5,{4}4/1,
{16}8/2,7,6,5,4/3,5,6,7,8/1,2,3,4,5/6,4,3,2,
1/8b,7,6,5,4,5/3,2/6,7/1,8b,1,2,3,4,5/3,6/2,7/1,
{4}8,{16}6,5,2,3,7,6,3,4,8,7,6/2,3,
{4}4/1,{16}3,4,7,6,2,3,6,5,1,2,3/7,6,
{24}5/8b,1,2,3,4,5,6,7,8,1,2,3,4/8b,7,6,5,4,3,2,1,8,7,6,5,
1b/4,2,3,4,5,6,7,8,1,2,3,4,{32}5bx,6,7,8,1,2,3,4,{4}5b-1[8:1]/7b-3[8:1],
{1}7bs3v5b[4:23]/5bz1v7b[4:23],
{2},,,,,,,,,,,8w4b[2:11]/1w5[2:11],
E
&inote_6=(193){4},,,,{1}5/4>5[4:15],
,,,4h[1:1],
5h[1:1],
{2}3V51[2:1],{4}1w5[4:1],6?V48b[2:1],
,8?w4b[4:1],,,{1}8bh[4:31]/2bh[4:31],
,,,,,,,{4}1-5[8:1],
{8}1,7,{16}6,5,6,5,{8}7,4-8[8:1],
,7,{4}7>3[8:1],5w1[8:1],5,
{16}7/3,6/4,{8}5h[4:1],,4,2/6,{16}3,5,4,5,{8}3-7[8:1],
,2,{4}2<6[8:1],4w8[8:1],4,
3/5-1[8:1],{8}5/2,3,{16}2,1,2,1,{8}3,4/8-4[8:1],
,3,{4}3<7[8:1],1w5[8:1],1,
{24}3,2,1,6,7,8,4,3,2,5,{48},{16}6,3,2,6,7,{12}4,5,3h[24:5],
{24},,,{8}5,{24}6,7,8,1,2,3,6,7,8,1,2,3,{32}5,6,7,8,1,2,3,4,
{8}5b/1b,2,3/5,{16}6,4,{8}8-3[8:1],4,3,2,
1/4-7[8:1],2,3,{16}2,1,{8}8-4[8:1],6,{4}8/4,
{8}2/1,3,6/4,{16}3,5,{8}1-6[8:1],5,6,7,
8/5-2[8:1],7,6,{16}7,8,{8}1-5[8:1],3,{4}1/5,
{16}7,4,7,4,6,3,6,3,5,2,4,3,{4}4h[4:1],
{16}2,5,2,5,3,6,3,6,4,7,5,6,{24}4,3,2,7,6,5,
{16}1,2,3,4,{4}5/1,{16}8/4,7,6,5,{4}4/8,
{16}1/B5,2/B4,3/B3,4/B2,{4}5/B1,{16}8/B4,7/B5,6/B6,5/B7,{4}4/B8,
1b-7[8:1]*-3[8:1],1-6[8:1]*-5[8:1],1-3[8:1]*-4[8:1],1<6[8:1]*-7-5[8:1],
1V35[8:1]*>4[8:1],1w5[8:1],1,7/2,
1/8-2[8:1]*-6[8:1],8-3[8:1]*-4[8:1],8-6[8:1]*-5[8:1],8>3[8:1]*-2-4[8:1],
8V64[8:1]*<5[8:1],8w4[8:1],8,{24}2,1,8,5,6,7,
{4}3-5[8:1],{8}3/1,7,6-2[8:1],5,6/4,3,
1-7[8:1],{16}4,5,{8}6/1-6[8:1],{16}3,4,{4}5/1w5[8:1],1b,
{8}8-2[8:1],7,8/6,6-4[8:1],4,3/6,3-7[8:1],2,
{4}3/1>4[8:1],{8}1w5[8:1],5w1[8:1],{16},,,A1f/D1/D2/A8/A2,,,,,{1}6bh[4:15]/4bh[4:15],
,,,3bh[4:11]/7bh[4:11],
,,{24}6b,
5,6,5,6,5,{16}4,3,4,5,{12}6,5,4,7b/3b,{24},,,,{8}1h[8:1],
2h[8:1],3h[8:1],4h[8:3],5h[4:1],,,6/2,
,3/4,5,8h[8:1],7h[8:1],6h[8:1],5h[4:1],4h[8:1],
,7/3,4,1h[8:1],2h[8:1],3h[8:1],4h[4:1],5h[8:1],
,6-3[8:1]/2-5[8:1],,,,6/2,7/1,8,
8h[8:1],7h[8:1],6h[8:1],5h[8:3],4h[4:1],,,3/7,
,6/5,4,1h[8:1],2h[8:1],3h[8:1],4h[4:1],5h[8:1],
,2/6,5,8h[8:1],7h[8:1],6h[8:1],5h[4:1],4h[8:1],
,7h[4:1]/3h[4:1],,,6/4,5/3,2/6,1/8,
{16}7,3,7,3,{8}7,{16}2,1,2,3,{8}2,{16}8,7,6,5,
2,3,2,3,{8}2,{16}7,8,7,8,{8}7,{16}3,4,{8}2/5,
{16}1,8,1,8,{8}1,{16}6,5,6,7,{8}6,{16}1,2,3,4,
7,6,7,6,{8}7,{16}2,1,2,1,{8}2-5[8:1],4,5,
7,6,8/7,4,2/1,5,7/8,4,
{24}2,1,2,1,2,1,{8}3,{16}4,7,5,6,4,7,{32}3,2,1,8,7,6,5,4,
{1}3/1b,
(196)1bw5[8:3]/8bw4[8:3],
{12}6,5,4,3,2,1,{8}8/7<4[8:1],{32}A1,D2,A2,D3,A3,D4,{16}A4,,,{8}7h[8:1],
3h[8:1],6h[8:1],2h[8:1],5h[8:1],1-5[8:1],,1,
7h[8:1],4h[8:1],6h[8:1],2h[8:1],{12}8,8,8,8-4[8:1],,,{4}2,
{16}1b/B5,2/B4,3/B3,4/B2,{4}5/B1,{16}8b/B4,7/B5,6/B6,5/B7,
{4}4/B8,{16}1b,2/8,3/7,4/6,{8}5<8[8:1],{32}A5,D5,A4,D4,A3,D3,{16}A2,,,{4}D1h[4:1]/E1h[8:1],
D5h[4:1]/E5h[8:1],D7h[4:1]/E7h[8:1],D3h[4:1]/E3h[8:1],
{8}1,2,8,7,6/2,1,8/7,6,
{1}4bw8[8:3]/5bw1[8:3],
{12}7,8,1,2,3,4,{8}5/6<1[8:1],{32}A4,D4,A3,D3,A2,D2,{16}A1,,,{8}6h[8:1],
2h[8:1],7h[8:1],3h[8:1],8h[8:1],4-8[8:1],,4,
6h[8:1],1h[8:1],7h[8:1],3h[8:1],{12}5,5,5,5-1[8:1],{24},,,,{8}2,
2,4/8,4,{4}2/6-2[8:1],4,
{8}7,7,5/1,5,{4}7/3-7[8:1],5,
8w4[2:1]/1w5[2:1],,,5?w1b[4:3]/4?w8b[4:3],
{1},(206){24}1b,
2,3,4,5,6,1,2,3,4,5,6,{16}2b,3,4,5,{12}2b,3,4,
{4}2/5h[4:1],{16}6b,7,8,1,{24}5b,6,7,8,1,2,5,6,7,8,1,2,
{4}3b/5b,{24}7/4h[8:1],8,1,2,,,2/5h[8:1],1,8,7,,,7/4h[8:1],8,1,2,{48},,,,{16}7,
6,5,4,7,6,5,4,8,1,2,3,8,1,2,3,
(209){24}8b,7,6,5,4,3,8,7,6,5,4,3,{16}7b,6,5,4,{12}7b,6,5,
{4}7/4h[4:1],{16}3b,2,1,8,{24}4b,3,2,1,8,7,4,3,2,1,8,7,
{4}6/4b,{24}2/5h[8:1],1,8,7,,,7/4h[8:1],8,1,2,,,2/5h[8:1],1,8,7,{48},,,,{16}2,
3,4,5,2,3,4,5,6/2,7/3,8/4,5/1,{4}6/2,
(212){2}7bh[4:1]/3bh[4:1],{8}6/3,5/4,{4}3/7,
{8}6/3,5/4,{4}6/2,{8}1/7,6/2,{4}5/3,
(215){16}8b/B4,7/B3,6/B2,5/B1,4,3,2,1,8b/E4,7/E3,6/E2,5/E1,4,3,2,1,
8b/A4,7/A3,6/A2,5/A1,4,3,2,1,8b/4,7/3,6/2,5/1,{4}4/8,
(218){16}7,5,6,4,7,5,6,4,7,5,7,4,7,5,{8}6h[8:1],
{16}2,4,3,5,2,4,3,5,2,4,2,5,2,4,{8}3h[#0.137619],
(221){16}8,7,6,5,{8}4/3,3,{16}1,8,7,6,{8}5/4,4,
{16}1,8,7,6/8,5/1,2,3,4,1/5,8,7,6/8,1/5,2,3,4,
(224){8}5/7b,6/4b,,2b/4,{4}5b/3,6/2,
{8}4b/2,3b/5,,7/5b,{4}4/6b,3/7,
(227){16}3b,5,3,5,3,5,3,5,4b,6,4,6,4,6,4,6,
3b,5,3,5,4b,6,4,6,3b,7,3,7,2b,8,2,8,
(230)1,1,1,1,1,1,1,1,1,1,1,1,{4}1h[4:1],
{24}8b,7,6,5,4,3,2,1,8,7/3b,4,5,6,7,8,1,2,3,4/7b,6,5,4,3,2,
{32}1,8b/2b,7bV51[16:11]/3bV51[16:11],6b/4b,{8}5b,,,,,{4}1?w5b[4:3],
,,,,(236)7b/1b,
5/4,{8}4,5,4,5,
4,5,4,5,4,5,{4}6/3,
5h[8:1]/4h[8:1],{8}6/3,5,4,5,4,A6h[4:1]/E7h[4:1]/A7h[4:1]/D6h[4:1]/A5h[4:1]/E5h[4:1]/A4h[4:1]/E6h[4:1],
,,{4}A2h[4:1]/E3h[4:1]/A3h[4:1]/D2h[4:1]/A1h[4:1]/E1h[4:1]/A8h[4:1]/E2h[4:1],{8},D8/A7/D7/A6/B7/E7,A5/D6/D5/B5,E4/B3/D3/A3/D4/A4,
{4}C,2/8h[8:3],{8}2,2,,7/1h[8:3],
,7,{4}7,2/8h[8:3],{8}2,2,
{4}7h[8:1]/3h[8:1],{8}1/8,8/7,7/6,6/5,4/5<8[16:7],4b/3b>8[16:5],
{32},,,,,,,,,,,,,,,,B8f,C/B6/B2/B5/B3/B7/B1,{16}E5/E4/B4/A5/A3,,,,,,,{8}7/5,
6/4,5/3,4/2,{32}D3,A3,D4,A4,8/D5,A5,D6,A6,{8}8/D7,8,
{16}7/8,6,5,4,3/8,7,6,5,{8}2/4,1,1,1,
2/4,3/5,4/6,5/7,{32}D7,A6,D6,A5,1/D5,A4,D4,A3,{8}1/D3,1,
{16}1/2,3,4,5,6/1,2,3,4,{8}5/7,8,8,8,
{2}7-3[8:1]/1-5[8:1],{8}6/2,1,8,2,
3/7,8,1,7,6/2,6/2,5/3,5/3,
{4}4h[4:1],{8}5,5,6/4,6/4,7/3,7/3,
{16}2,3,4/8,7,6/1,2,3/7,6,5/B2,B3,B4/B8,B7,B6/A2,A3,A4/A8,A7,
(240){2}A6/1bw5[8:1],{4}2/8h[2:1],{8}3,4,
5h[2:1],7,7,6,{4}4<7[8:1],{8}2,1,
8-4[8:1],8,7-5[8:1],7,1-3[8:1],1,4,5,
6/1,{24}1,2,3,{8}4h[4:1],{24}8,7,6,{8}5,2,{16}7,8,6,8,
1/5,2,3,4,1/5,8,7,6,5/1<6[8:1],4,3,2,{4}1/4-8[8:1],
5,{8}1/7,7,{4}2/6,{8}3/5,3,
{24}7,4,6,3,5,2,{8}4h,{24}2,5,3,6,4,7,5h,,,{4}8/1,
{16}7b/3b,6/4,5,4/6,{8}3/7,8/1,{16}2b/6b,3/5,4,5/3,{8}6/2,8/1,
{4}3/7-3[8:1],7/1,{8}1<6[8:1],2,{4}3/1,
4/2-6[8:1],2/8,{8}8-4[8:1],7,{4}6/8,
{16}3b,2,6b/1,5,{8}4,{16}6b,7,8/3b,4,{8}5,{24}4b,3,2,1/7b,6,5,
{8}4,{24}5b,6,7,8/2b,3,4,5,{96},,,,,,,,{32}1b,8/2,7/3,6/4,{8}5-1[8:1],,,8,
8,7/1h[2:3],6,5,4,3,2,
{12}8,7,6,5,4,3,2,3,4,5,6,7,
{8}8/2,{24}3,4,3,,,,{8}4/7,{24}6,5,{12}6,{24},,{8}5/2,{24}3,4,3,
,,,{8}7/4,{24}6,5,{6}6,8-4[8:1]/1-5[8:1],{12},{4}8b/1b,
7/2,{16}6/8,5,4,3,2/1,3,4,5,6/2,7,8,1,
{4}2/4,{16}3/1,4,5,6,7/8,6,5,4,3/7,2,1,8,
{8}7/5b,5,4b/6,4,5b/3,3,6/4b,6,
{16}4b,5,3,6,2b,7,3,6,2b,7,1,8,2b,7,3,6,
{4}4bh[4:1],{8}5,5,6/4,6/4,7/3,7/3,
8/2,8/2,7/3,4/6,{24}3,5,3,5,3,5,4,6,4,6,4,6,
{16}3,2,1,8,5,6,7,8,4,3,2/6,1/5,8/4,7,6,5,
4/1,3/8,2/7,1/6,{24}8,7,8,7,8,7,6/1,5,4,{96}3,,,2,,,{32}1/5,8/4,{4}7v2[8:1]/3v6[8:1],
{1}Cf/7b<3s7v5[4:23]/3b>7s3v1[4:23],
{2},,,,,,,,,,,E6h[4:23]/E4h[4:23],
{8},,,B6,{16},B3,,,{8}E7,E3,
{16},B6,,,B3,,,B5,,,,B4,,,,,,,,,{4}E5h[1:3],
E
&inote_7=(193){4},{12},,,,,,,,,5/4>5[4:15],
6m,7m,8m,7m,6m,5m,7m,6m,5m,6m,7m,
8m,5m,6m,7m,6m,5m,6m,7m,8m,7m,6m,5m,
4m,3m,2m,1m,2m,3m,4m,2m,3m,4m,3m,2m,
1m,4m,3m,2m,3m,4m,3m,2m,1m,2m,1m,8m,
4h[1:1],1m,8m,7m,6m,5m,6m,7m,8m,1m,2m,3m,
5h[1:1],8m,1m,2m,3m,4m,3m,2m,1m,8m,7m,6m,
{2}3V51[2:1],{4}1w5[4:1],6?V48b[2:1],
,8?w4b[4:1],,,{1}8bh[4:31]/2bh[4:31]/7?-4-1m[4:15]/3?-8-5m[4:15],
{4},,,,,,,,,,,5?p3m[8:15]/1?p7m[8:15],
{8},,,,,,,,,,,,,7?pp1m[8:13]*qq5m[8:13]*<5m[8:13]*>1m[8:13]/3?pp5m[8:13]*qq1m[8:13]*<5m[8:13]*>1m[8:13],
,,,,,,,,,,,,,,,,,,{4}1-5[8:1],
{8}1,7,{16}6,5,6,5,{8}7,4-8[8:1],
,7,{4}7>3[8:1],5w1[8:1],5,
{16}7/3,6/4,{8}5h[4:1],,4,2/6,{16}3,5,4,5,{8}3-7[8:1],
,2,{4}2<6[8:1],4w8[8:1],4,
3/5-1[8:1],{8}5/2,3,{16}2,1,2,1,{8}3,4/8-4[8:1],
,3,{4}3<7[8:1],1w5[8:1],1,
{24}3,2,1,6,7,8,4,3,2,5,{48},{16}6,3,2,6,7,{12}4,5,3h[24:5],
{24},,,{8}5,{24}6,7,8,1,2,3,6,7,8,1,2,3,{32}5,6,7,8,1,2,3,4,
{8}5b/1b,2,3/5,{16}6,4,{8}8-3[8:1],4,3,2,
1/4-7[8:1],2,3,{16}2,1,{8}8-4[8:1],6,{4}8/4,
{8}2/1,3,6/4,{16}3,5,{8}1-6[8:1],5,6,7,
8/5-2[8:1],7,6,{16}7,8,{8}1-5[8:1],3,{4}1/5,
{16}7,4,7,4,6,3,6,3,5,2,4,3,{4}4h[4:1],
{16}2,5,2,5,3,6,3,6,4,7,5,6,{24}4,3,2,7,6,5,
{16}1,2,3,4,{4}5/1,{16}8/4,7,6,5,{4}4/8,
{16}1/B5,2/B4,3/B3,4/B2,{4}5/B1,{16}8/B4,7/B5,6/B6,5/B7,{4}4/B8,
1b-7[8:1]*-3[8:1],1-6[8:1]*-5[8:1],1-3[8:1]*-4[8:1],1<6[8:1]*-7-5[8:1],
1V35[8:1]*>4[8:1],1w5[8:1],1,7/2,
1/8-2[8:1]*-6[8:1],8-3[8:1]*-4[8:1],8-6[8:1]*-5[8:1],8>3[8:1]*-2-4[8:1],
8V64[8:1]*<5[8:1],8w4[8:1],8,{24}2,1,8,5,6,7,
{4}3-5[8:1],{8}3/1,7,6-2[8:1],5,6/4,3,
1-7[8:1],{16}4,5,{8}6/1-6[8:1],{16}3,4,{4}5/1w5[8:1],1b,
{8}8-2[8:1],7,8/6,6-4[8:1],4,3/6,3-7[8:1],2,
{4}3/1>4[8:1],{8}1w5[8:1],5w1[8:1],{16},,,A1f/D1/D2/A8/A2,,,,,{4}6bh[4:15]/4bh[4:15],
{8}1m,3m,7m,8m,5m,1m,
,1m,2m,8m,2m,1m,5m,3m,
,2m,1m,8m,7m,5m,3m,3m,
,,,,,,,,{4}3bh[4:11]/7bh[4:11],
{8}2m,1m,8m,6m,5m,4m,
,4m,5m,6m,8m,1m,2m,5m,
,2m,1m,8m,6m,5m,{24},,,,,,6b,
5,6,5,6,5,{16}4,3,4,5,{12}6,5,4,7b/3b,{24},,,,{8}1h[8:1],
2h[8:1],3h[8:1],4h[8:3],5h[4:1],,,6/2,
,3/4,5,8h[8:1],7h[8:1],6h[8:1],5h[4:1],4h[8:1],
,7/3,4,1h[8:1],2h[8:1],3h[8:1],4h[4:1],5h[8:1],
,6-3[8:1]/2-5[8:1],,,,6/2,7/1,8,
8h[8:1],7h[8:1],6h[8:1],5h[8:3],4h[4:1],,,3/7,
,6/5,4,1h[8:1],2h[8:1],3h[8:1],4h[4:1],5h[8:1],
,2/6,5,8h[8:1],7h[8:1],6h[8:1],5h[4:1],4h[8:1],
,7h[4:1]/3h[4:1],,,6/4,5/3,2/6,1/8,
{16}7,3,7,3,{8}7,{16}2,1,2,3,{8}2,{16}8,7,6,5,
2,3,2,3,{8}2,{16}7,8,7,8,{8}7,{16}3,4,{8}2/5,
{16}1,8,1,8,{8}1,{16}6,5,6,7,{8}6,{16}1,2,3,4,
7,6,7,6,{8}7,{16}2,1,2,1,{8}2-5[8:1],4,5,
7,6,8/7,4,2/1,5,7/8,4,
{24}2,1,2,1,2,1,{8}3,{16}4,7,5,6,4,7,{32}3,2,1,8,7,6,5,4,
{1}3/1b,
(196)1bw5[8:3]/8bw4[8:3],
{12}6,5,4,3,2,1,{8}8/7<4[8:1],{32}A1,D2,A2,D3,A3,D4,{16}A4,,,{8}7h[8:1],
3h[8:1],6h[8:1],2h[8:1],5h[8:1],1-5[8:1],,1,
7h[8:1],4h[8:1],6h[8:1],2h[8:1],{12}8,8,8,8-4[8:1],,,{4}2,
{16}1b/B5,2/B4,3/B3,4/B2,{4}5/B1,{16}8b/B4,7/B5,6/B6,5/B7,
{4}4/B8,{16}1b,2/8,3/7,4/6,{8}5<8[8:1],{32}A5,D5,A4,D4,A3,D3,{16}A2,,,{4}D1h[4:1]/E1h[8:1],
D5h[4:1]/E5h[8:1],D7h[4:1]/E7h[8:1],D3h[4:1]/E3h[8:1],
{8}1,2,8,7,6/2,1,8/7,6,
{1}4bw8[8:3]/5bw1[8:3],
{12}7,8,1,2,3,4,{8}5/6<1[8:1],{32}A4,D4,A3,D3,A2,D2,{16}A1,,,{8}6h[8:1],
2h[8:1],7h[8:1],3h[8:1],8h[8:1],4-8[8:1],,4,
6h[8:1],1h[8:1],7h[8:1],3h[8:1],{12}5,5,5,5-1[8:1],{24},,,,{8}2,
2,4/8,4,{4}2/6-2[8:1],4,
{8}7,7,5/1,5,{4}7/3-7[8:1],5,
8w4[2:1]/1w5[2:1],,,5?w1b[4:3]/4?w8b[4:3],
{1},(206){24}1b,
2,3,4,5,6,1,2,3,4,5,6,{16}2b,3,4,5,{12}2b,3,4,
{4}2/5h[4:1],{16}6b,7,8,1,{24}5b,6,7,8,1,2,5,6,7,8,1,2,
{4}3b/5b,{24}7/4h[8:1],8,1,2,,,2/5h[8:1],1,8,7,,,7/4h[8:1],8,1,2,{48},,,,{16}7,
6,5,4,7,6,5,4,8,1,2,3,8,1,2,3,
(209){24}8b,7,6,5,4,3,8,7,6,5,4,3,{16}7b,6,5,4,{12}7b,6,5,
{4}7/4h[4:1],{16}3b,2,1,8,{24}4b,3,2,1,8,7,4,3,2,1,8,7,
{4}6/4b,{24}2/5h[8:1],1,8,7,,,7/4h[8:1],8,1,2,,,2/5h[8:1],1,8,7,{48},,,,{16}2,
3,4,5,2,3,4,5,6/2,7/3,8/4,5/1,{4}6/2,
(212){32}1m`7bh[4:1]/3bh[4:1],1m,1m,1m,1m,1m,1m,1m,1m,1m,1m,1m,1m,1m,1m,1m,{24}6/3`1m,1m,1m,5/4`1m,1m,1m,{16}3/7`1m,1m,1m,1m,
{24}6/3`8m,8m,8m,5/4`8m,8m,8m,6/2`8m,8m,8m,8m,8m,8m,{32}1/7`8m,8m,8m,8m,6/2`8m,8m,8m,8m,{4}5/3,
(215){16}8b/B4,7/B3,6/B2,5/B1,4,3,2,1,8b/E4,7/E3,6/E2,5/E1,4,3,2,1,
8b/A4,7/A3,6/A2,5/A1,4,3,2,1,8b/4,7/3,6/2,5/1,{4}4/8,
(218){16}7,5,6,4,7,5,6,4,7,5,7,4,7,5,{8}6h[8:1],
{16}2,4,3,5,2,4,3,5,2,4,2,5,2,4,{8}3h[#0.137619],
(221){16}8,7,6,5,{8}4/3,3,{16}1,8,7,6,{8}5/4,4,
{16}1,8,7,6/8,5/1,2,3,4,1/5,8,7,6/8,1/5,2,3,4,
(224){32}5/7b/1m,1m,1m,1m,6/4b/1m,1m,1m,1m,1m,1m,1m,1m,2b/4/1m,1m,1m,1m,{24}5b/3/1m,1m,1m,1m,1m,1m,{16}6/2/1m,1m,1m,1m,
{24}4b/2/8m,8m,8m,3b/5/8m,8m,8m,8m,8m,8m,7/5b/8m,8m,8m,{32}4/6b/8m,8m,8m,8m,8m,8m,8m,8m,{4}3/7/8m,
(227){16}3b,5,3,5,3,5,3,5,4b,6,4,6,4,6,4,6,
3b,5,3,5,4b,6,4,6,3b,7,3,7,2b,8,2,8,
(230)1,1,1,1,1,1,1,1,1,1,1,1,{4}1h[4:1],
{24}8b,7,6,5,4,3,2,1,8,7/3b,4,5,6,7,8,1,2,3,4/7b,6,5,4,3,2,
{32}1,8b/2b,7bV51[16:11]/3bV51[16:11],6b/4b,{8}5b,,,,,{4}1?w5b[4:3],
,,,,(236)7b/1b,
5/4/6m/3m,{8}4/6m/5m/3m,5/3m/4m/6m,4/6m/5m/3m,5/3m/4m/6m,
4/5m/6m/3m,5/4m/3m/6m,4/6m/5m/3m,5/4m/3m/6m,4/5m/6m/3m,5/4m/3m/6m,{4}6/3/5m/4m,
5h[8:1]/4h[8:1],{8}6/3,5,4,5,4,A6h[4:1]/E7h[4:1]/A7h[4:1]/D6h[4:1]/A5h[4:1]/E5h[4:1]/A4h[4:1]/E6h[4:1],
,,{4}A2h[4:1]/E3h[4:1]/A3h[4:1]/D2h[4:1]/A1h[4:1]/E1h[4:1]/A8h[4:1]/E2h[4:1],{8},D8/A7/D7/A6/B7/E7,A5/D6/D5/B5,E4/B3/D3/A3/D4/A4,
{4}C,{8}2/7m/1m/8h[8:3],1m/2m/7m,2/7m/1m,2/7m/1m,,7/8m/2m/1h[8:3],
7m/8m/2m,7/8m/2m,{4}7/8m/2m,{8}2/1m/7m/8h[8:3],2m/1m/7m,2/1m/7m,2/1m/7m,
{4}7h[8:1]/3h[8:1],{8}1/8,8/7,7/6,6/5,4/5<8[16:7],4b/3b>8[16:5],
{32},,,,,,,,,,,,,,,,B8f,C/B6/B2/B5/B3/B7/B1,{16}E5/E4/B4/A5/A3,,,,,,,{8}7/5,
6/4,5/3,4/2,{32}D3,A3,D4,A4,8/D5,A5,D6,A6,{8}8/D7,8,
{16}7/8,6,5,4,3/8,7,6,5,{8}2/4,1,1,1,
2/4,3/5,4/6,5/7,{32}D7,A6,D6,A5,1/D5,A4,D4,A3,{8}1/D3,1,
{16}1/2,3,4,5,6/1,2,3,4,{8}5/7,8,8,8,
{2}7-3[8:1]/1-5[8:1],{8}6/2,1,8,2,
3/7,8,1,7,6/2,6/2,5/3,5/3,
{4}4h[4:1],{8}5,5,6/4,6/4,7/3,7/3,
{16}2,3,4/8,7,6/1,2,3/7,6,5/B2,B3,B4/B8,B7,B6/A2,A3,A4/A8,A7,
(240){2}A6/1bw5[8:1],{4}2/8h[2:1],{8}3,4,
5h[2:1],7,7,6,{4}4<7[8:1],{8}2,1,
8-4[8:1],8,7-5[8:1],7,1-3[8:1],1,4,5,
6/1,{24}1,2,3,{8}4h[4:1],{24}8,7,6,{8}5,2,{16}7,8,6,8,
1/5,2,3,4,1/5,8,7,6,5/1<6[8:1],4,3,2,{4}1/4-8[8:1],
5,{8}1/7,7,{4}2/6,{8}3/5,3,
{24}7,4,6,3,5,2,{8}4h,{24}2,5,3,6,4,7,5h,,,{4}8/1,
{16}7b/3b,6/4,5,4/6,{8}3/7,8/1,{16}2b/6b,3/5,4,5/3,{8}6/2,8/1,
{4}3/7-3[8:1],7/1,{8}1<6[8:1],2,{4}3/1,
4/2-6[8:1],2/8,{8}8-4[8:1],7,{4}6/8,
{16}3b,2,6b/1,5,{8}4,{16}6b,7,8/3b,4,{8}5,{24}4b,3,2,1/7b,6,5,
{8}4,{24}5b,6,7,8/2b,3,4,5,{96},,,,,,,,{32}1b,8/2,7/3,6/4,{8}5-1[8:1],,,8,
8,7/1h[2:3],6,5,4,3,2,
{12}8,7,6,5,4,3,2,3,4,5,6,7,
{8}8/2,{24}3,4,3,,,,{8}4/7,{24}6,5,{12}6,{24},,{8}5/2,{24}3,4,3,
,,,{8}7/4,{24}6,5,{6}6,8-4[8:1]/1-5[8:1],{12},{4}8b/1b,
7/2,{16}6/8,5,4,3,2/1,3,4,5,6/2,7,8,1,
{4}2/4,{16}3/1,4,5,6,7/8,6,5,4,3/7,2,1,8,
{8}7/5b,5,4b/6,4,5b/3,3,6/4b,6,
{16}4b,5,3,6,2b,7,3,6,2b,7,1,8,2b,7,3,6,
{4}4bh[4:1],{8}5,5,6/4,6/4,7/3,7/3,
8/2,8/2,7/3,4/6,{24}3,5,3,5,3,5,4,6,4,6,4,6,
{16}3,2,1,8,5,6,7,8,4,3,2/6,1/5,8/4,7,6,5,
4/1,3/8,2/7,1/6,{24}8,7,8,7,8,7,6/1,5,4,{96}3,,,2,,,{32}1/5,8/4,{4}7v2[8:1]/3v6[8:1],
{1}Cf/7b<3s7v5[4:23]/3b>7s3v1[4:23],
{2},,,,,,,,,,,E6h[4:23]/E4h[4:23],
{8},,,B6,{16},B3,,,{8}E7,E3,
{16},B6,,,B3,,,B5,,,,B4,,,,,,,,,{4}E5h[1:3],
E
