&title=SociuS
&artist=Ellim Gnirps vs よみぃ
&first=0.87
&des=SweetS
&lv_5=14+
&inote_5=(211)
{16}
1,8,1,8,1,8,1,8,
{12}
2b/7b,,3,6,5,7,3,4,
2,8,1,8,2/7-4[8:1],,,7x/5x-1[8:1],,,5x/8x<5[8:1],,,2x/8x,,,
3,4,3,5,2,5,1,6,1,7,8,7,1-5[8:1],5,5,1,
,,8-4[8:1],4,4,8-6[8:1],3,3,
{8}
8,,2h[4:1],,3h[4:1],,4h[4:1],,
{12}
5h[1:1],,,6b,,4b,,
7b,,,,,4h[1:1],,,3b,,5b,,2b,,,,
,6h[1:1],,,7b,,4b,,1b,,,,,3h[1:1],,,
2b,,5b,,8b,,,,,
{16}
1b,8,7,6,1,2,3,4,8,7,6,5,8,1,2,3,
6,4,6,4,7,3,7,3,7,6,5,4,1,2,3,4,
7,5,7,5,6,4,6,4,6,7,8,1,4,3,2,1,
7,8,7,8,6,1,6,1,5,4,5,4,3b/6b,,,,
2,4,3,5,4,6,1,8,2b-5[316.5#8:1],,,4b-8[316.5#8:1],,,1b,,
7,5,6,4,5,3,8,1,7b-4[316.5#8:1],,,5b-1[316.5#8:1],,,8b,,
2,7,2,7,5,6,5,6,4,5,4,5,3,4,3,4,
2,3,4,5,1,2,3,4,8,1,2,3,8b/4b,,,,
5,4,3,2,8,7,6,5,1,2,3,4,1,8,7,6,
3,5,3,5,2,6,2,6,2,3,4,5,8,7,6,5,
2,4,2,4,3,5,3,5,3,2,1,8,5,6,7,8,
2,1,2,1,3,8,3,8,4,5,4,5,6b/3b,,,,
7,5,6,4,5,3,8,1,7b-4[316.5#8:1],,,5b-1[316.5#8:1],,,8b,,
2,4,3,5,4,6,1,8,2b-5[316.5#8:1],,,4b-8[316.5#8:1],,,1b,,
7,2,7,2,4,3,4,3,5,4,5,4,6,5,6,5,
7,4,7,4,8,3,8,3,
{24}
8,7,6,2,3,4,7,6,5,1,2,3,
(195)
{12}
B7/B6/E7f/4b,,2,1,1,8,1,1,2,1,1,8,2,,7,1,
5,3,1,5,7,1,6,2,4h[12:3],,3h[6:1],,2h[6:1],,5h[4:1],,
4h[6:1],,3h[6:1],,E5,E6,E7,E4,E5,E6,E3,E4,E5,1,2,3,
4-8>3[2:1]/8,,,,,6,6h[4:1],,,,,,1/5-1<6[2:1],,,,
,3,3h[4:1],,,,,,5,4,7,7p6[4:1],3,3h[6:2],,,
,,,,4,5,2,2q3[4:1],6,6h[3:1],,,,,,,
{16}
5q8[8:5],,,,,,
2,3,4>1[8:1],,,,,,,,7x,6,5,4,1,2,
3,4,8,1,2,3,4,5,6,7,
(211)
{16}
8-4[8:1]/Cf,,,,38,,2-8-3[4:1],,,,4,,5,,6,,
7<4[8:1],,,8,7,,2qq5[2:1],,,,3,,4,,5,,
6v3[8:1]*v1[8:1],,,,,,,,8,7,6,5,3,4,3,4,
1,2,3,4,6,5,6,5,7<4[8:1],4,8,3,7,,,,
1,2,7,6,1,2,7,6,1h[8:1],,4,1h[8:1],,7,4h,7,
4h,,6,5,6,5,7,5,7,5,8,4,8,4,7,3,
5x,,3,4,2,5,2,5,3,6,3,6,4,7,4,7,
5,,46,,8,,17,,3,4,2,5,
{32}
1,2,3,4,5,6,7,8,
{16}
1-5[8:1],,5,5,A1f,,,,
{4}
7-4[8:1],7x/3-8[8:1],3x/6-1[8:1],6x/2-5[8:1],2x/8x>3[8:1]*<5[8:1],8xw4[8:1],8,
{16}
,,7-4[8:1],,1,,7,,3-8[8:1],,5,,3,,,6,5,,
74,,7/4-6[8:1]*-2[8:1],,,,4w8[8:1],,,,4b,,,,6,2,
6,2,5,3,5,3,7,1,7,1,7,6,5,4,E8,E7,
E6,E5,E1,E8,E7,E6,3,4,3,4,2,,2,,13,,
13,,84,,84,,75,,75,,6,4,7,3,8,2,
7,1,6,2,5,3,
{24}
6,2,6,2,6,2,
(195)
{24}
6b,,,3,,,
{16}
5,4,
{24}
5,4,5,4,,,,,,
{16}
36,,,,E7,E6,E5,E4,D7,D6,D5,D4,C,,,,
E1/E2/E3/D1/D2/D3/B1/B2/A1/A2,,,,6,5,7h[8:3],,4,,3,,2,,,,
7,6,8h[8:3],,5,,4,,3,,,,27,,,,
16,,
{24}
,2,3,
{16}
45,,E4,,E6,,E3,,E7,,E2,,
{24}
A7,D7,A6,D6,A5,D5,
{16}
4x/3x-1-7[8:5],,,,,,,,6,,,,5,,,,
4h[2:1],,,5,,,3,,2h[2:1],,,3,,,1,,
8q5[9:4],,,4-1[4:1],,,4,,,,,,,,,,
{12}
2b/6b,,8,4,6,8,4,2,8,5bx,1bx,3xb,
{8}
7bxv5[4:1],,5q1[4:1],,
4,,3,,2>5[2:1],,,,8-4[2:1],,,,
{12}
3,3,3,3,
,,5,4,6,1,8,2,
{16}
7,8,6,1,5,2,4,3,
6,5,7,4,8,3,1,2,
8,3,7,3,6,3,5,3,
4,2,5,2,6,2,7,2,
8,7,6,1,2,3,4h[16:3]/8h[16:3],,
,,37,,26,,15,,1h[4:1]/5h[4:1],,,,,,26,37,
8v1[8:1]/4v5[8:1],,,,,,,,
(211)
{16}
26,,,3-7[16:1]/7-4[16:1],,,3b/7b>4[8:3],Cf,
,,5,,6,,7,,8h[8:1],,,1h[8:1]/7h[8:1],,,2h[16:3]/6h[16:3],,
,,5-1[8:1],,3-5-7[4:1]*-5-8[4:1],,5,,3,,,,,,,,
1x,2,3,4,6x,5,7,5,8x,7,6,5,3x,4,2,4,
1x,5,1x,6,2x,7,3x,8,2,1,2,8,2,1,2,8,
3h[8:1],,7,3h[8:1],,6,3h,6,3h,,5,4,5,4,6,3,
7,2,8,1,8,1,8,1,7,8,7,1,7,2,7,3,6,5,
7,4,8,3,1,2,8,,81,,2,,27,,6,,
63,,5,4,6,3,8-4[8:1],,4,4,A8f,,,,
{4}
2-5[8:1],2x/6x-1[8:1],6x/3x-8[8:1],3x/7x-4[8:1],7x/1x<6[8:1]*>4[8:1],1xw5[8:1],1,
{16}
,,7-5[8:1],,3,,7-1[8:1],,3,,7,,2,3,4,5,
7,1,8,1,7,6,5,4,2,8,1,8,
2b-5[8:1],,,1,2,,1,,
8b-4[8:1],,,1,8,,2,,
3b-8[8:1],,,5,3,,5,,
6h[8:1],,,5h[8:1]/7h[8:1],,,48,,3,,27,,6,,15,,
2,,24,,5,,53,,4,,64,,7,,
75,,84,,84,,37,,37,,2,6,2,6,3,5,
3,5,4,6,3,7,1,6,2,5,
{24}
1,2,3,4,
7,6,5,4,
1,2,3,4,
8,7,6,5,
2,1,8,7,
6,5,4,3,
{12}
7b/2b,,6,3,4,2,6,5,
7,1,8,1,7/2-5[8:1],,,2/4-8[8:1],,,4/1>4[8:1],,,71,,,
6,5,6,4,7,4,8,3,8,2,1,2,8b-4[8:1],4,4,8b,
,,1b-5[8:1],5,5,1b-3[8:1],6,6,
{8}
1b,,7h[4:1],,6h[4:1],,5h[4:1],,
{1}
4b-1-3-8[4:6]*-7-5-8[4:6],,
2-8<7q5[2:3]/6-4>3q1[2:3],,
{16}
3,4,2h[8:3],,5,,6,,7,,,,
2,3,1h[8:3],,4,,5,,6,,,,72,,,,
83,,
{24}
,7,6,
{16}
54,,E6,,E4,,E7,,E3,,E8,,
,,2,8,
{1}
1bs5b[1:4]*s5b[1:4],,,,,,
