&title=Spinel
&artist=ぺのれり
&first=0
&des=
&des_5=Nabla
&lv_5=14
&inote_5=(182){4},{8},,,,,,B1/B2,
,,E6,,,{4}B3/B4,
{8},E8,,,{4}C,E1,
{8},E3,{4}E4,{8}B7/B6,,,E8,
,E6,,B1/B2,,B6,{4}B5,
{8}B8/B7,,,E4,,,{4}B6/B5,
{8},E2,,,{4}C,3x/E1,
{8},A7,A6,A5,A4,A3,A2,A1,
A8,A7,A6,C/B5/B4,{16},,1,8,{4}2b/7b,
1-5[8:1],{8}6,6h[4:1],,4,{4}3-8[8:1],
{8}7,7h[4:1],,8,{4}1>4[8:1]/6<1[8:1],6/1V75[4:1],
{8},3,{4}2-6[8:1]*-4[8:1],{8},,7,5/8<5[8:1],
,4>1[8:1],,7h[4:1],,8,{4}1/6,
1/8-4[8:1],{8}3,3h[4:1],,5,{4}6-1[8:1],
{8}2,2h[4:1],,1,{4}3/8<5[8:1],{8}8,1h[4:1],
,5,6,3-8[8:1]/7-5[8:1],,7-3[8:1],,1,
,1,2,7/3>8[8:1],,7,6,5,
Cf/B1/B5,,,3xh[8:3],,,{4}7xh[4:3],
,,{2}1xh[4:1],
{24}A7,A6,A5,A4,,,{8}B1/B2,{24}E7,E6,E5,{8}E4,A1/D2,{16}A8,A7,A6,A5,
E2,E3,E4,E5,E6,E7,E8,E1,{2}E2/A6/A2/E6,
{8}6xh[8:3],,,4xh[8:3],,,{4}6x,
{16},,E7,E8,E1,E2,E3,E4,{2}E5/B5,
2>5[2:1],6,
6<1[2:1],2,
{4}3h[4:1],{8}4,3h[4:1],,4,{4}3,
{8}6,5,{4}6h[4:1],4,5/3,
6h[4:1],{8}5,6h[4:1],,5,{4}6,
{8}3,4,3,5,{4}4,5/3h[4:1],
6h[4:1],{8}5,6h[4:1],,5,{4}6,
{8}3,4,3,5,4,5,4,5,
3,6,2,7,1,8,{4}2bV48[8:3],
{8},8,7,6,{4}5<8[8:1]/1>4[8:1],1/5,
{8}8x/4x,8x/4x,,7/3,{4}7/3,{8}2/6,6/2h[4:1],
{16},,7,6,5/4,3,2,1,7,6,5,4,8,1,2,3,
{8}5/4,5/4,,2/6,{4}2/6,{8}7/3,3/7,
,8/4,{4}4/8-4[8:1],2,{16}1,2,3,4,
{8}5/6,5/6,,7/1,{4}7/1,{8}4/3,4/3,
,2/8,{4}2/8,{8}8,1-5[8:1],7,1b,
{16},,8,8,4,3,2,1,5,6,7,8,{8}1/2,3/8<5[8:1],
{24},,,4,3,2,{4}1,8-4[8:1]/7-3[8:1],8/7,
{8}2/5,1h[16:1],4,8,5,1,7,3,
8<5[8:1],{16}4,3,{8}2,1x,4-8[8:1],2-5[8:1],4,2,
7,{16}4,4,8,7,6,5,8,1,2,3,1,8,7,6,
3,4,2,5,1,6,8,7,1,8,2,7,3,6,4,5,
{4}4V25[4:1],{8}5-1[8:1],6,7-3[8:1],8,7,2-5[8:1]*-6[8:1],
,2,,7/1>4[8:1],{24},,,8,7,6,{4}5,
2b/7b,{8}4/3,5b/2b,,6/5,{4}4b/7b,
{8}2/8,1h[16:1],1h[16:1],2h[16:1]/8h[16:1],3h[16:1]/7h[16:1],5,6h[16:1]/2h[16:1],4,
{1}Cf,
,{32}2h[4:3]/E6,
E5,{16}E4,{1},{4},{8},{4}4,
6,
{32}7h[1:1]/E4,E5,{16}E6,{1},{4},{8},{4}5,
4,
{8}6/5-1[4:1],,,7,,,{4}2/4h[8:3],
{8},3,,,{4}2/5,3/4,
6,{8}5,6,,4,{4}5,
{8}3,3,{4}4,2-5[8:1],6,
8,{8}4,6,,2,{4}4,
{8}1,1,3,3,8,8,6,6,
1,1,3,3,5,5,7,7,
{4}1-5[8:1],{8}7,8-4[8:1],,4,{4}3,
{8}B8/B7,,,B3/B4,,,{4}E6/A6/A5,
{8},A1/A2/E2,,,{4}4b-8b[8:1]/5b-1b[8:1],4x/5x/D5f,
{8}2bx/7bx,{16}3,4,{8}3,2/5,{16}6,5,{8}6,7/4,{16}2,1,
{8}2,8/3h[8:1],{16}1,8,7,6,2,3,4,5,6,7,8,1,
6/2h[16:3],,,4h[16:3],,,{8}5,{16}6h[16:3],,,8h[16:3],,,{8}1,
{16}2h[16:3],,,4h[16:3],,,{8}6,{16}8h[16:3],,,6h[16:3],,,{8}2,
4,{16}1,8,7,6,{8}5,2-4[8:1],5-1[8:1],2,5,
3h[4:1],8,7,6,5-1[8:1],4,3,2,
{4}8<5[8:1],{24}4,3,2,1,,,,,,8/7,6/1,5/2,{4}4/3,
{8}5/4,7/3-6[8:1],,,{4}8-4b[8:1],8x,
1b,{8}2/7,3,4/5>2[8:1],6,{4}7b,
{8}8,1,2/6,3,5/4,6,3/4,2,
{4}7b-3[8:1],{8}2,1b>4[8:1],,5,{4}6bpp4[4:1],
{8},2,,3,4,5,4/6,7,
{4}1b/8b,{16}1/8,2,3,4,5/1-5[8:1],4/8,3/7,2/6,{4}1/5,
{16},,7,6,5/4,3,2,1,4,5,6,7,8/1,2,3,4,
{4}5/1b,{16}8,7,6,5,4/8-4[8:1],5/1,6/2,7/3,{4}8/4,
{16},,2,3,4/5,6,7,8,1/2,,,3/4,,,{8}5/6,
{4}8/7h[4:1],{16}1,2,3,4,5/6,,,8/7,,,{8}2/1,
{4}4/3h[4:1],{16}5,6,7,8,{8}1/2,3,5/6,7,
{4}2b/1b,{8}2,4/8h[4:1],,1,{4}6b/2b,
{16},,1/5,2,3/8,1,2/7,8,{32}1-5[8:1]/6-1[8:1],7,8,1,2,3,4,5,,,,,,,,,{8}B5/B4,
,,E7,,,{4}B2/B3,
{8},E6,,,{4}2h[4:1],4,
{8}B4/B5,,,E3,,,{4}B7/B6,
{8},E4,,7,{4}7h[4:1],5,
{8}A4/D4,,,C,,,{4}B1/B2,
{8},E6,,,{4}1h[4:1],4,
{8}A5/D6,,,C,,,{4}7h[8:3],
{8},5,7,4,6,5,{4}8,
8h[8:1],{8}B3/B4,6h[8:1],,B1/B2,{4}7h[8:1],
{8}E3,E5,E4,E6,{4}2h[4:1],B6/B5,
1h[8:1],{8}B6/B5,3h[8:1],,B8/B7,{4}2h[8:1],
{8}E7,E5,E6,E4,7h[4:1],{16}E6,E5,{4}E4,
{8}8<5[4:1],,,3>8[4:1],,,{4}6>3[4:1],
{8},1<6[4:1],,,{4}2h[4:1],B6,
{8}3>8[4:1],,,5<8[4:1],,,{4}4h[8:3],
{8},E8,E7,E6,3,3,{4}4,
3h[4:1],4,{8}3,3,{16}4,5,6,7,
{4}8h[4:1],5,{8}8,8,{4}5,
7h[4:1],5,{8}6,5,7/4,3/8,
E
