&title=DAMIDAMI
&artist=Sihan/三Z-STUDIO/HOYO-MiX
&first=0
&des=mmfc_yegou
&des_5=mmfc_yegou
&lv_5=13
&inote_5=(130){4},{24},,,,,,,,,,,,,,,,2,3,
4,5>6[24:41],{1},{4},,,{16},{24},{16}1,
{32},2,,,{8}3pp8[8:11],{1},{4},,,{16}6xh[8:3],
,,4h[16:3],,,,,{2}3h[16:3]/5h[8:3],
{16}2h[8:3],,,4h[16:3],,,,,{2}5h[16:3]/3h[8:3],
{16}7xh[8:3],,,5h[16:3],,,,,{2}4>8[4:1]*p8[4:1],
{8},7h[4:1],{4}5h[8:1],{16}4h[4:1]/6h[4:1],{32},,,,,,,,,,,,2x,3x,
{16}4x/7h[8:3],,,5h[16:3],,,,,8h[16:3],,,3h[16:3],,,{8}6,
{16}5/2h[8:3],,,4h[16:3],,,,,1h[16:3],,,6h[16:3],{48},,,,,,{24}3x,2x,1x,
{16}8xh[8:3],,,7h[16:3],,,,,{2}5-8[4:1]*>8[4:1],
{8},7h[4:1],{4}1h[8:1],{2}2z6[4:1],
{8}5h[4:3],B4/A4,B3/A3,B2/A2,B1/A1,B8/A8,{4}B7/A7,
{8},B7/A7,B8/A8,B1/A1,B2/A2,B3/A3,B4/A4,B5/A5,
{1}B6/A6/7xqq4[2:1],
1xpp4[2:1],
{8}5/2,{16}3,3,6,4,{8}7,8/5,{16}7,7,4,6,{8}3,
4/2,{16}1,1,4,2,{8}5,6/4,{16}7,7,5,6,{8}4,
5/3,{16}1,1,4-7[4:1],4,{8}2,,,{4}C,
{8}7/5,{16}4,4,6,6,{8}2,{4}4xh[16:1]/3xh[16:1],{8}5/2,6/3,
4/7,{16}6,6,3,5,{8}2,1/4,{16}2,2,5,3,{8}6,
5/7,{16}8,8,5,7,{8}4,3/5,{16}2,2,4,3,{8}5,
4/6,{16}8,8,5-2[4:1],5,{8}7,,,{4}C,
{8}2/4,{16}5,5,3>7[4:1],3,{8}6,{4}7p3[4:1],3,
{8}5h[4:3],A6/B6,A7/B7,A8/B8,A1/B1,A2/B2,{4}A3/B3,
{8}4h[4:3],B3/A3,B2/A2,B1/A1,B8/A8,B7/A7,B6/A6,B5/A5,
{4}B4/A4/3xqq8[2:1],{8}5,6,{2}7h[4:1],
{4}8qq5[2:1],{8}2,3,{2}4h[4:1],
{8}1h[4:3],B2/A2,B3/A3,B4/A4,B5/A5,B6/A6,{4}B7/A7,
{8}8h[4:3],A7/B7,A6/B6,A5/B5,A4/B4,A3/B3,A2/B2,A1/B1,
{4}A8/B8/5pp8[2:1],{8}3,2,{2}1h[4:1],
{1}8qq5[2:1]*pp3[2:1],
{16}1b>4[8:1],,,6,{8}1b<6[8:1],8,{4}1b/5p1[8:1]*pp7[8:1],5x,
{16}8-4[8:1],,,1,{8}8V62[4:1],3,{2}2V46[8:1]*V86[8:1],
{4}6<1[8:1],2pp1[4:1],{2}1w5[8:1],
{4}3>8[8:1],7qq8[4:1],{2}8w4[8:1],
{16}4b>1[8:1],,,7,{8}4b<7[8:1],5,{4}4b/8-4[8:1]*>4[8:1],8x,
{16}5-1[8:1],,,4,{8}5V74[4:1],3V15[4:1]*-1[8:1],{2}5,
{4}6<1[8:1],2p8[4:1],{2}8w4[8:1],
{4}3>8[8:1],7q1[4:1],1,{8}4pp3[4:3],3>5[8:7],
,,,,,,,,{4}4h[4:3],
,,3qq4[4:1],
4q6[4:1],6,{8}8-5[8:1]*-3[8:1],7,{4}8,
{8}3h[8:1],{16}7,7,{8}1-7b[8:1],1-3b[8:1],1x-5b[8:1],1x,{4}1x,
{16}5/4<7[8:1],,,3,{8}4,1,{4}8-4[8:1],8/7,
{16}4/5>2[8:1],,,6,{8}5,8,{4}1-5[8:1],1/2,
7-4[8:1],{8}3-6[8:1],2,{4}1,{8}1qq4[8:5],2>8[8:5],
{24},,,,,,,,,,,,,,,,,,3,2,1,8,7,6,
{1}8xh[4:3]/5xh[4:3],
4>4[4:3],
8V64[2:1]*V24[2:1],
{4}7V51[16:5],2-5-1b[8:3],,,7h[4:1],
1s5[4:1],{2}5s1b[4:1],
{4}8<4[4:1],4>8[4:1],8,C,
2V86[4:1],6V42[4:1],2,C,
3h[8:1]/5h[8:1],6/4-8[8:1],{2}8-5[8:1]*-3[8:1],
{4}6h[8:1]/4h[8:1],5h[8:1]/3<6[8:1],2,{8}6x/3x,7x/4x,
8,{16}5,7h[8:1],,4,{8}6h[8:1],3,{16}5,4h[8:1],,6,{8}5h[8:1],
8,{16}6,7h[8:1],,5,{8}6h[8:1],3,{16}5,4h[8:1],,6,{8}5h[8:1],
7h[8:1],{16}8,6h[8:1],,1,{8}5,2h[8:1],{16}1,3h[8:1],,8,{8}4,
{4}7qq4[2:1],,,Cfh[4:3],
{16},,,,,,,,8b<5[8:1],,,3,{8}8b>3[8:1],1,
{4}8b/4<8[8:1]*qq2[8:1],4x,{16}1-5[8:1],,,8,{8}1>4[8:1],6qq4[8:1],
{2}4q8[8:1]*<7[8:1],{4}3>8[8:1],{8}5qq7[4:1],6,
{2}7w3[8:1],{4}6<1[8:1],{8}4pp2[4:1],3,
{2}2w6[8:1],{16}5b<8[8:1],,,2,{8}5b>2[8:1],4,
{4}5b/1<6[8:1]*p5[8:1],1x,{16}4v5[8:1],,,5,{8}4>1[8:1],7>1[8:1],
{2}1qq7[8:1]*q5[8:1],{4}8<5[8:1],{8}3q5[4:1],2,
{2}5w1[8:1],{4}1>4[8:1],{8}6p4[4:1],7,
{4}4,{8}1qq2[4:3],2>8[8:7],,,,,,,,,{2}5h[4:3],
{4},7pp5[4:1],5qq6[4:1],3,
{8}1-6[8:1]*-4[8:1],2,{4}1,{8}6h[8:1],{16}2,2,{8}8-2b[8:1],8-6b[8:1],
8x-4b[8:1],8x,{4}8x,{16}4/5>2[8:1],,,6,{8}5,8,
1-5[8:1],2,{4}1/3,{16}5/4<7[8:1],,,3,{8}4,1,
8-4[8:1],7,{4}8/6,2-5[8:1],{8}6-3[8:1],7,
{4}8,{8}2x/8x,3x/7x,{16}6/4-7[8:1],,,3,{8}4,8,
{32}1,2,3,4,5,6,7,8,1,2,3,4,5,6,7,8,{2}1/5V38[2:1]*V72[2:1],
{24},,,,,,,,,2x/8x-2-6-4[8:9]*-2-6-4b[8:9],3/7,6/4-6-2-8[24:25],{2}5,
E
