&title=Alphabet song
&artist=Charles Bradlee
&first=1.95
&des=天兔壽斯
&lv_6=14
&inote_6=(129)
{4}3,34,6,65,3,34,6,65,
34,45,56,{8}7,2,
{4}1b/8b,7b/2b,6b/3b,,
7/8-3[8:1],8/7-4[8:1],7/1-4[8:1],1/8-5[8:1],8/2-5[8:1],2/1<3[4:1],1/3v6[8:1],,
2-5[8:1]/7,2/7-4[8:1],7/1>4[8:1],1/8<5[8:1],{8}8/1-5[8:1],2,1/8-5[8:1],7,8-2-6[8:1],,,,
{4}8<3[4:1],3<8[8:1],1s5[16:1],1b,4>7[4:1],7>4[8:1],5-8[16:1]*-2[16:1],5b,
{8}4w8[16:1],4,4,,{4}1-5[16:1]/8-4[16:1],1b/8b,
8v5[16:1]/2v5[16:1],8/2,7-1-5[8:1]/3-5-1[8:1],,
8-5[16:1]*-3[16:1],8,8-5[8:1]/5qq5[8:1],85,1<4[4:1],4<1[4:1],1,,
6-8[8:1],6/4-8[8:1],4/2-4[8:1],2/8-4[16:1],8<5[16:1]*>3[16:1],8w4[16:1],8b,,
{4}3b,34,6,{8}6b/5b,4,3,,34,,6,,65,,
{4}7-3[8:1],7/8-4[8:1],8/1-5[8:1],{8}1/2-6[8:1],2,{4}2/1-5[8:1],1b/8bw4[8:1],8b,,
5q1[16:1]/1q5[16:1],1<6[16:1]/5>2[16:1],5q1[16:1]/1q5[16:1],1<6[16:1]/5>2[16:1],5q1[16:1]/1q5[16:1],1<6[16:1]/5>2[16:1],1-5[16:1]/5-1[16:1],,
5-8[16:1]/1-4[16:1],1-6[16:1]/5-2[16:1],5-8[16:1]/1-4[16:1],1<6[16:1]/5>2[16:1],5-8[16:1]/1-4[16:1],1<6[16:1]/5>2[16:1],1-5[16:1]/5-1[16:1],,
6q2[16:1]/2q6[16:1],2<7[16:1]/6>3[16:1],6-3[16:1]/2-7[16:1],2b/6b,3p7[16:1]/7p3[16:1],7>2[16:1]/3<6[16:1],3-6[16:1]/7-2[16:1],7b/3b,
{8}6-1[16:1]/2-5[16:1],62,{4}2-7[16:1]/6-3[16:1],6<1[16:1]/2>5[16:1],2b/6b,
3-8[16:1]/7-4[16:1],7-2[16:1]/3-6[16:1],3>8[16:1]/7<4[16:1],,
5q1[16:1]/1q5[16:1],1<6[16:1]/5>2[16:1],5-8[16:1]/1-4[16:1],1-6[16:1]/5-2[16:1],5-8[16:1]/1-4[16:1],1<6[16:1]/5>2[16:1],1-5[16:1]/5-1[16:1],,
4p8[16:1]/8p4[16:1],8>3[16:1]/4<7[16:1],4-1[16:1]/8-5[16:1],8-3[16:1]/4-7[16:1],4b-1[16:1]/8b-5[16:1],8b>3[16:1]/4b<7[16:1],8b/4b,,
1b>5[4:1],5<1[4:1],1>5[4:1],5-7-1[4:1],1b-3-5[4:1],5b-7-1[4:1],1b-3-5[4:1],,
8b<4[4:1],4b>8[4:1],8b<4[4:1],4b-2-8[4:1],8b-6-4[4:1],4b-2-8[4:1],8b-6-4[4:1],,
1b>5[4:1],5b<1[4:1],1b>4[4:1],5b,{16}1b/5,6,7,8,1/5b,2,3,4,{4}1b/5b,,
{16}5/1,2,3,4,5/1,6,7,8,5/1,2,3,4,5/1,6,7,8,5/1,2,3,4,5/1,6,7,8,5/1,2,3,4,5/1,,,,
4/8,7,6,5,4/8,3,2,1,4/8,7,6,5,4/8,3,2,1,4/8,7,6/2,5,4/8,3,2/6,1,{32}4/8,7,6,5,4,3,2,1,8/4,,,,,,,,
{32}1/5,2,3,4,5,6,7,8,1/5b,2,3,4,5,6,7,8,1-5[16:1]/5,2,3,4,5,6,7,8,1b/5b,,,,,,,,
8/4,7,6,5,4,3,2,1,8/4b,7,6,5,4,3,2,1,8-4[16:1]/4,7,6,5,4,3,2,1,8b/4b,,,,,,,,
1/5,2,3,4,5/1,6,7,8,1/5b,2,3,4,5,6,7,8,1-5[16:1]/5,2,3,4,5,6,7,8,1b/5b,,,,,,,,
8/4,7,6,5,4,3,2,1,8/4b,7,6,5,4,3,2,1,{48}8bw4[16:1],1b/7b,2b/6b,3b/5b,4b,,,,,,,,{4},
{32}6/3,4,5,6,7,8,1,2,3/6,5,4,3,2,1,8,7,6/3,4,5,6,7,8,1,2,3/6,5,4,3,2,1,8,7,
6/2,3,4,5,6,7,8,1,2/6,5,4,3,2,1,8,7,6/2,3,4,5,6,7,8,1,2/6,5,4,3,2,1,8,7,
6/2,3,4,5,6,7,8,1,2/7,6,5,4,3,2,1,8,7/2,3,4,5,6,7,8,1,2/7,6,5,4,3,2,1,8,
7/3,4,5,6,7,8,1,2,3/7,6,5,4,3,2,1,8,7/3,4,5,6,7,8,1,2,3/7,,,,,,,,
6/2,3,4,5,6,7,8,1,2/6,5,4,3,2,1,8,7,6/2,3,4,5,6,7,8,1,2-5[16:1]/6-1[16:1],5,4,3,2,1,8,7,
{4}6b-3[16:1]/2-7[16:1],6b<1[16:1]/2b>5[16:1],2b/6b,,
