&title=Calamity Fortune
&artist=LeaF
&first=0
&des=什么时候才能成为堇神
&lv_7=练
&inote_7=(200){1},
{16}1,5,2,6,3,7,4,8,1/5,,8/4,,7/3,,6/2,,
{16}1,5,1,5,3,4,3,4,2,7,2,7,5,6,5,6,
{16}4/5,,4/5,,2/7,,1,8,1-5[8:1],8,1,,1b/8,,,,
{16}8,4,8,4,6,5,6,5,7,2,7,2,4,3,4,3,
{8}1,7/8,5/6,4/3,1-5[8:1]/2-6[8:1],,1b/2b,,
{16}4,7,4,7,1,8,1,8,2,5,2,5,1,8,1,8,
{16}2,6,3,7,4,8,5,1,4,8,3,7,2,6,1,5,
{16}4/8,,,1/5,1/5,,2/6,,3-8[8:1]/7-4[8:1],,,,7/3,,,,
{16}2-5[8:1]/6-1[8:1],,2/6,,2/6,,,,3b/7b,,,,4,5,4,5,
{16}3/6,,2,1,2-5[8:1],1,2,,8-4[8:1]/2,,7,,1/8,,2,,
{16}1/6,,7,8,7-4[8:1],8,7,,7/1-5[8:1],,2,,1/8,,7,,
{16}3/8,,2,1,2-5[8:1],1,2,,8-4[8:1]/2,,7,,1/8,,2,,
{8}1-4[8:1]/6-3[8:1],7/8,1-5[8:1]/6-1[8:1],,1/6,,{16}8,1,8,1,
{16}7/2,,6,5,6-1[8:1],5,6,,4-8[8:1]/6,,3,,5/4,,6,,
{16}5/2,,3,4,3-8[8:1],4,3,,3/5-1[8:1],,6,,5/4,,3,,
{16}7/4,,6,5,6-1[8:1],5,6,,4-8[8:1]/6,,3,,5/4,,6,,
{8}5/2,1/8,4/7,2/5,8-4[8:1]/4-8[8:1],2/6,,,
{8}2-5[8:1],1,2,8-4[8:1],1,8,1-5[8:1],8,
{8}1,7-4[8:1],8,7,3,2h[8:1]/6h[8:1],,,
{8}7-4[8:1],8,7,1-5[8:1],8,1,8-4[8:1],1,
{8}2-5[8:1],2-7[8:1],2s6[4:1],,,,8b,,
{16}4,8,3,7,2,6,1,5,8,4,1,5,2,6,3,7,
{16}4/8,,2,1,3<6[8:1],1,2,,8-4[8:1]/3,,7,,1/8,,3,,
{16}2/6,,7,8,6>3[8:1],8,7,,1-5[8:1]/6,,2,,8/1,,6,,
{16}3/7,,2,1,3<6[8:1],1,2,,8-4[8:1]/3,,7,,1/8,,3,,
{8}2-5[8:1]/6,2/6-1[8:1],2-7[8:1],6-3[8:1],2,6,1b,,
{16}3/7,,6,5,7>2[8:1],5,6,,4-8[8:1]/7,,3,,5/4,,7,,
{16}6/2,,3,4,2<7[8:1],4,3,,5-1[8:1]/2,,6,,4/5,,2,,
{16}3/7,,,4/8,4/8,,5/1,,6>3[8:1]/2<7[8:1],,,,6/2,,,,
{8}2-5[8:1]/6-1[8:1],2/6,2/6,,3bw7[8:1]/7b,,,,
{16}1,5,2,6,3,7,4,8,5-2[8:1],,8-4[8:1],,5,,8,,
{16}1,,1,1,1,,8/2,,2v5[8:1]/8v5[8:1],3/7,4/6,,2b/8b,,,,
{16}8,4,7,3,6,2,5,1,4-7[8:1],,1-5[8:1],,4,,1,,
{16}8,8,,7/1,7/1,,4/5,,2/8,,3,7,2,6,1,5,
{8}8>3[8:1]/4,5,8/6,7,8<5[8:1]/4,3,8/2,1,
{8}8-4[8:1]/4,,8/6-1[8:1],,6/3-6[8:1]*-8[8:1],,3,,
{16}7,8,7,8,4,3,4,3,1,2,1,2,6,5,6,5,
{16}4/7,,8,1,8,,3,4,,2/5,,6,5,,4/7,,
{1}2b/7b<4[2:1],
{1}2>5[2:1],
{4}5,5,4,4,
{1}3<6[8:3],
{16}3h[1:1],,,,,,,,4,,,5,,,6,,
{16}6h[1:1],,,,,,,,5,,,4,,,3,,
{4}3h[4:2],1,6h[4:2],8,
{8}3-7[8:1],,4,5,8-4[8:1]/6-1[8:1],,8b/6b,,
{16}3,5,3,5,2,6,2,6,1-5[8:1],7,1,7,,,,,
{16}8,4,7,3,6,2,5,1,4,8,5,1,6,2,7,3,
{16}8,4,7,3,6,2,5,1,6,2,7,3,8,4,1,5,
{16}8,4,7,3,6,2,5,1,4,8,5,1,6,2,7,3,
{16}8h[16:1]/4h[16:1],,7h[16:1]/3h[16:1],,6h[16:1]/2h[16:1],,5h[16:1]/1h[16:1],,
{16}8h[16:1]/4h[16:1],,1h[16:1]/5h[16:1],,2h[16:1]/6h[16:1],,3h[16:1]/7h[16:1],,
{16}4,8,3,7,2,6,1,5,8,4,1,5,2,6,3,7,
{16}4,8,3,7,2,6,1,5,2,6,3,7,4,8,5,1,
{16}4,8,3,7,2,6,1,5,8,4,1,5,2,6,3,7,
{16}8h[16:1]/4h[16:1],,7h[16:1]/3h[16:1],,6h[16:1]/2h[16:1],,5h[16:1]/1h[16:1],,
{16}2h[16:1]/6h[16:1],,3h[16:1]/7h[16:1],,4h[16:1]/8h[16:1],,5h[16:1]/1h[16:1],,
{16}2,6,1,5,8,4,7,3,7-2[8:1],,3-6[8:1],,7,,3,,
{16}1,5,8,4,7,3,6,2,6-1[8:1],,2-5[8:1],,6,,2,,
{16}8,4,7,3,6,2,5,1,5-8[8:1],,1-4[8:1],,5,,1,,
{16}7,5,6,4,5,3,4,2,8,5,7,4,6,3,5h[16:1]/2h[16:1],,
{16}1,5,2,6,3,7,4,8,4-1[8:1],,8-5[8:1],,4,,8,,
{16}2,6,3,7,4,8,5,1,5-2[8:1],,1-6[8:1],,5,,1,,
{16}3,7,4,8,5,1,6,2,5,1,4,8,3/7,,2-5[8:1]/6-1[8:1],,
{8},2/6,,3/6,1/8,2/7,3/6,4/5,
{4}3h[4:3]/6,6,5,5,
{4}4-1[8:1]*-2[8:1],4-6[8:1]*-7[8:1],4w8[8:1],4b,
{16}6/4,,5,5,5,,6/4,,6-2[8:1]/4-8[8:1],7/3,8/2,,4/6,,,,
{8}5<8[8:1],,5>2[8:1],,5,8b,8b,,
{8}2-5[8:1],2,1-6[8:1],1,2-5[8:1],2,1-6[8:1],1,
{8}3-8[8:1],3,4-7[8:1],4,3-8[8:1],3,4-7[8:1],4,
{8}2-7[8:1],2,6-3[8:1],6,2-7[8:1],2,6-3[8:1],6,
{8}1-4[8:1],1,5-8[8:1],5,1>4[8:1],1,5<8[8:1],5,
{16}1s5[8:1]*v4[8:1],,,,,,,,3,6,3,6,4h[8:1]/5h[8:1],,,,
{16}3/6,,1,8,1,,6,5,,7/4,,3,4,,5/2,,
{1}2b>5[2:1]/7b,
{1}7<4[2:1],
{4}4,4,5,5,
{4}6>3[8:3],,,1b,
{16}6h[1:1],,,,,,,,5,,,4,,,3,,
{16}3h[1:1],,,,,,,,4,,,5,,,6,,
{4}6h[4:2],8,3h[4:2],1,
{8}6-2[8:1],,5,4,1-5[8:1]/3>8[8:1],,1/3,,
{16}2b/7b,,,,1,8,1,8,2,7,2,7,3,6,3,6,
{4}4-2[8:1]/5-2[8:1],4-7[8:1]/5-7[8:1],4-8[8:1]/5-1[8:1],4/5,
{32}2,3,4,5,6,7,8,1,2,3,4,5,6,7,8,1,2w6[8:1],,,,,,,,2b,,,,,,,,
{16}3/8,,2,1,2-5[8:1],8,3,,2/7>2[8:1],,6,,2/7,,3,,
{16}1/6,,7,8,7-4[8:1],1,6,,7/2<7[8:1],,3,,7/2,,6,,
{16}3/8,,2,1,2-5[8:1],8,3,,2/7>2[8:1],,6,,2/7,,3,,
{32}1/6,,,,8h[8:1]/1,2,3,4,5,,,,1h[8:1]/8,7,6,5,4,,,,8h[8:1]/1,2,3,4,5,,,,,,,,
{16}7/4,,6,5,6-1[8:1],4,7,,6/3<6[8:1],,2,,6/3,,7,,
{16}2/5,,3,4,3-8[8:1],5,2,,3/6>3[8:1],,7,,3/6,,2,,
{16}7/4,,6,5,6-1[8:1],4,7,,6/3<6[8:1],,2,,6/3,,7,,
{16}8,1,8,,3/6,,2,1,,8/3,,7,8,,6/1,,
{16}4/5,,2,1,3<6[8:1],4,2,,7>2[8:1]/3,,8,,7/1,,3,,
{16}4/5,,7,8,6>3[8:1],5,7,,2<7[8:1]/6,,1,,2/8,,6,,
{16}4/5,,2,1,3<6[8:1],4,2,,7>2[8:1]/3,,8,,7/1,,3,,
{32}4/5,,,,1h[8:1]/2,3,4,5,6,,,,7/8h[8:1],6,5,4,3,,,,1h[8:1]/2,3,4,5,6,,,,,,,,
{16}8/1,,6,5,7>2[8:1],8,6,,3<6[8:1]/7,,4,,3/5,,7,,
{16}8/1,,3,4,2<7[8:1],1,3,,6>3[8:1]/2,,5,,6/4,,2,,
{16}8/1,,6,5,7>2[8:1],8,6,,3<6[8:1]/7,,4,,3/5,,7,,
{16}8,1,8,,3/6,,2,1,,3/8,,7,8,,1/6,,
{1}2b>5[2:1]/7b,
{1}7<4[2:1],
{1}2>5[2:1],
{4}6,5,4,3,
{1}5<8[2:1],
{1}4>1[2:1],
{16}1,5,2,6,3,7,4,8,5,1,4,8,3,7,2,6,
{32}1,2,3,4,5,,,,8,7,6,5,4,,,,1,2,3,4,5,6,7,8,1,2,3,4,5,6,7,8,
{1}1b<1[4:11]*>1[4:11]/5b,
{1},
{1},
{1},
E
