&title=CH4NGE
&artist=Giga, 可不
&first=0.05
&des=SnapDot
&lv_5=13
&inote_5=(115)
{4},,,4h[4:1],
{4}5-1[2:1],B3,,E2,
{4}8-4[2:1],B1,,B3,
{4}2-5[2:1],E1,,B6,
{4}4-1[2:1],B4,,B1,
{4}7-3[2:1],E2,,B4,
{4}8-4[2:1],E1,,B5,
{16}4hx[16:3]/5hx[16:3],,,,4hx[12:1]/6hx[12:1],,5x/3x,,2-5[8:1],,,,8,,7,,
{4}7xV53[4:1],3V17[4:1],4h[4:1],{24}E4,B3,B2,E2,,,
{16}1x>4[8:1]/8x,,2,,1x,7x,,,4x/5x<8[8:1],,6,,5x,3x,,,
{16}2>5[8:1],,1,1,2x,8h[8:1],,,{32}E8,B7,B6,E6,,,,,A4,E4,B3,B2,,,,,
{16}8x<5[8:1]/1x,,7,,8x,2x,,,5x/4x>1[8:1],,3,,4x,6x,,,
{32}1x,B1,C,B5,,,,,7xw3[8:1],B7,C,B3,,,,,7x,,,,,,,,5-8[8:1]*-2[8:1],,,,4,,,,
{8}5b,,1x/7x<4[8:1],8,3h[8:1]/7,,1-3[8:1],1-7[8:1],
{8}1x-4[8:1],1x-6[8:1],1x-5[8:1],1x,1x,,5/7>2[8:1],6,
{8}4x/7x,,1/3<6[8:1],2,8x-4V62[2:1]/3x,,3,3,
{8}1>6[2:1],1h[8:1],,2x,3x,4x,5xh[8:1],,
{16}4h[8:1]/6h[8:1],,,2h[8:1]/8h[8:1],,,5-1[8:1]/3,,,,5,,3,3,1x,,
{16}2h[8:1]/3h[8:1],,,5h[8:1]/8h[8:1],,,6-4[8:1]/7,,,,6/1,,2-8[8:1],,3,,
{8}2/4-6[8:1],,1-3[8:1]/4,2,1/7-4[8:1],8,3/7,,
{4}2v8[8:1]/5v8[8:1],,1v4[8:1]/7v4[8:1],,
{8}5/3-6[8:1],2,6/3,,5/3-6[8:1],2,3/6,,
{8}5/3-6[8:1],2,3/6,,{32}7,B7,C,B3,,,,,1,B1,C,B5,,,,,
{8}8/2-7[8:1],3,7/2,,8/2-7[8:1],3,2/7,,
{8}8/2-7[8:1],3,7/2,8s4[4:1],,,,,
{16}1-4[8:1],,8,,1-5[8:1],,7,,1-3[8:1],,6,,1-4[8:1],,7,7,
{16}1-5[8:1],,8,,1-6[8:1],7,,7,1-4[8:1],,8,,1,,8,,
{16}8-5[8:1],,1,,8-4[8:1],,2,,8-6[8:1],1,1,,8>3[8:1],,1,,
{8}4<7[8:1]/8,,1>8[4:1]/4,,1/4h[8:1],,4,1b,
{16}7-3[8:1],,,8,7/8-4[8:1],,,1,1-5[8:1]/8,,,2,1/2-6[8:1],,,3,
{16}2/3-7[8:1],,,4,3/4-8[8:1],,,5,4/5-2[8:1]*-8[8:1],,,,5x,,,,
{16}6-2[8:1],,,5,6/5-1[8:1],,,4,4-8[8:1]/5,,,3,4/3-7[8:1],,,2,
{16}3/2-6[8:1],,,1,2/1-5[8:1],,,8,1/8-3[8:1]*-5[8:1],,,,8x,,,,
{2}4>5[1:1],C,
{2}5>6[1:1],C,
{2}6>7[1:1],C,
{2}7<8[1:1],C,
{2}5V37-2[1:1],E1,
{16}2-8-6-3[1:1],,,,,,,,C,,,,,,,,
{2}3v6V48[4:5],B2,
{4},8-5[8:3],C,,
{4}5x/C,6x/C,7x/C,8x/C,
{4}1x/B5/B4/E5,2x/E7/B7/B6,3x/E8/B8/E1,4bx/E1/B1f/E2,
{16}5/6<1[8:1],,7,,6,4,,,1/3<6[8:1],,4,,3,8,,,
{16}7>2[8:1],,5,5,7,4h[8:1],,,{32}B4,C,B8,A8,,,,,A8,B8,C,B4,,,,,
{16}3>8[8:1]/5,,1,,3,4,,,4/6<1[8:1],,8,,6,5,,,
{16}2/8,3-5[12:1]/7-5[12:1],,,2-6[8:1]/8-4[8:1],3/7,,,2x/8x,,,,7-5[8:1],,8,,
{8}1-4[8:1]/7b,8,5<8[8:1]/1,6,3h[8:1]/5,,2-4[8:1],8-6[8:1],
{8}2x-5[8:1],8x-4[8:1],2x-6[8:1],8x,2x,,4/6v1[8:1],7,
{32}4x/6x,3,2,,,,,,2x>5[8:1]/8x,,,,4,,,,2x/8x,7,6,,,,,,1<6[8:1],,,,8,,,,
{32}5x/1x,4x,3x,2x,1x,8x,7x,6x,5x>2[8:1],,,,,,,,5<8[8:1]/6,,,,,,,,4/5,,,,,,,,
{16}2h[8:1]/8h[8:1],,,1h[8:1]/3h[8:1],,,5/7<5[8:1],,,,7,,2,2,1,,
{16}1h[8:1]/5h[8:1],,,2h[8:1]/6h[8:1],,,4h[8:1]/8v7-5[4:1],,,,4,,2-4[8:1],,3,,
{8}2/6-1[8:1],,4-8[8:1]/6,5,4/7<4[8:1],6,1h[8:1]/7,,
{4}1-4[8:1]/5-8[8:1],,8v2[8:1]/4v6[8:1],,
{8}1/7-2[8:1],6,2/7,,1/7-2[8:1],6,7/2,,
{8}1/7-2[8:1],6,7/2,,{32}3x,B3,C,B7,,,,,8x,B8,C,B4,,,,,
{8}4/6-3[8:1],7,3/6,,4/6-3[8:1],7,6/3,,
{8}4/6-3[8:1],7,3/6,4xV62-8b[4:1],,,,,
{8}2-7[8:1]/7,8/3,2/7,,2-7[8:1]/7,8/3,2/7,,
{8}2-7[8:1]/7,8/3,2/7,,{32}6x,B6,C,B2,,,,,1x,B1,C,B5,,,,,
{8}2-7[8:1]/7,8/3,2/7,,2-7[8:1]/7,8/3,2/7,,
{8}2-7[8:1]/7,8/3,2/7,,{32}8,B8,C,B4,,,,,1,B1,C,B5,,,,,
