&title=Talking to the Rain
&artist=大馄饨,海伊,星尘
&first=0.08999999
&lv_5=13
&des_5=hiyorain
&inote_5=
(105){4},{8},,,,,,2h[8:5],
,,,,7h[8:3],,,3h[8:5],
,,,,6h[8:3],,,4,
4,,,,5h[8:3],,,4,
4,,,,4h[8:3],,,5,
5,,,,8/1pp1[4:1],,1/7,
{4}6,{8}3,5,{4}4<7[8:1],4>1[8:1],
{8}4h[4:3],,,,,1>3[8:1],3<1[8:3],1/5,
C,{16},,,,,,,,3,4,{8}3,5/2,
4z8[8:1],5/3,{4}4/2h[8:3],{8},7h[8:1],3h[8:1],6h[8:1],
4h[8:1],5h[8:1],{4}4,{16},,5-1[8:1],4,{8}3,2/5,
3,4/8-4[8:1],7/3h[4:1],8,,5/2,6/1,7/8w4[8:3],
,8,{16},,,,,,6,5,{8}6,4/7,
5s1[8:1],4/6,{4}5/7h[8:3],{8},2h[8:1],6h[8:1],3h[8:1],
5h[8:1],4h[8:1],{4}5,{16},,4p8[8:1],5,{8}6,7/4,
6,5/1q5[8:1],2/6h[4:1],1,,4/7,3/8,2/1qq1[8:3]*pp1[8:3],
,1,,,,C,,6/4-8[8:1],
8-4[8:1],4,7,6-2[8:1],2-6[8:1],6,3,4,
5/3,6/4,7h[4:1]/5>1[8:1]*p1[8:1],6x,{4}5,{8}5/3-8[8:1],2,
3/5-8[8:1],6,5/4-1[8:1],3,4/6-1[8:1],7,6/4,5w1[8:1],
,5,,E3,E2,E8,E7,3/5q1[8:1],
1q5[8:1],5,2,3p7[8:1],7p3[8:1],3,6,5,
4/6,3/5,2h[4:1]/4<8[8:1]*q8[8:1],3x,{4}4,{8}4/6<1[8:1],7,
6/4>1[8:1],3,4/5-1[8:1],6,{4}5h[4:1],{8}2,3/6,
7/4,5/8-4[8:5],,1,7,8xw4[16:1],,8b,
Cf,1,2/4,3,4/6,5,6qq4[16:1]/8>4[16:1],7,
{4}6/8,{8}5V38[8:1],6,{4}7/5V72[8:1],5/1x,
{16}3,7,4,6,{8}5,{16}6,4,{8}8/2,{16}3,5,1x-4[16:1],8,2,6,
{8}1bx,{16}6,3,{8}5/2,{16}3,6,{8}4/7,{16}5-1[16:1],6,4,8,{8}5bx,
Cf,8,7/5,6,5/3,4,3pp5[16:1]/1<5[16:1],2,
{4}3/1,{8}4V61[8:1],3,{4}2/4V27[8:1],4/8x,
{16}6,2,5,3,{8}4,{16}3,5,{8}1/7,{16}6x,4,8x-5[16:1],1,7,3,
{8}8bx,{16}3,6,{8}4/7,{16}6,3,{8}5/2,{16}7,1,{8}6,2/7,
6/1pp5[16:3],2/5,{4}1/7h[8:3],{8},4h[8:1],6h[8:1],3h[8:1],
5h[8:1],2h[8:1],{48}4,5,{24}6,{48},,,,,,,,,,,,,,{16}5/4>1[8:1],6,{8}3/7,4/8<5[8:1],
7,8/2pp4[8:1],1,2/6pp8[8:1],7,6/3,2,1>3v4[8:3]*<7v6[8:3],
,1,{16},,,,,,2,8,{8}3,7/2,
3/8qq4[16:3],7/4,{4}8/2h[8:3],{8},5h[8:1],3h[8:1],6h[8:1],
4h[8:1],7h[8:1],{48}5,4,{24}3,{48},,,,,,,,,,,,,,{16}4/5<8[8:1],3,{8}6/2,5/1>4[8:1],
2,1/7qq5[8:1],8,7/3qq1[8:1],2,3/6,7,8-5-1-4[8:3]*-3-7-4[8:3],
,8,,,,Cf,,5/3<6[8:1],
6-3b[8:1],3,8,7q3[8:1],3>7b[8:1],7,4,5,
4/6,5/3,4h[4:1]/2<5[8:1]*p5[8:1],3x,{4}2,{8}3-8[8:1],4,
3/5-2[8:1],6,5/7-4[8:1],8,7/1-6[8:1],2,1/3qq3[8:1]*pp3[8:1],4,
{4}3,{8}B6,E5,B3,2/8qq8b[16:3],7,8/3,
4<6-3<4q1-4[8:5],3,4/8,7,{4}6,{8}8xqq8b[16:3],7,
8/3qq3pp3[2:1],2,3,7,6h[4:1],,,7/2,
6/1-5[8:5],7,2,8,{4}1xw5[16:1],1b,
{16},,,,,,5,4,{8}7/2,4/5-8[16:1]*q2[16:1],{16}6,3,{8}E6f,
,1/3,2/4,5/3,4/6,5/7,6<8-4[32:5]/8>2-6[32:5],7/1,
,,5xpp7[8:1],3/7pp1[8:1],5/1,2,3,4/8,
{16}5q1b[16:1],7,4,6,{8}5bx,{16}7,2,{8}8/3,{16}2,7,1xq5b[16:1],6,2x,5,
{8}1bx,{16}6,4,{8}7/3,{16}2,4,{8}1/5,{16}2,4,{8}3-6q2[8:7],4,
3b/5,3b,3b,3b,3b,3b,{4}3b,
{8}5b/4b,8/6,7/5,4/6,5/3,4/2,{4}3>1-5[32:5]/1<7-3[32:5],
3x/1x,{8}4xqq2[8:1],6/2qq8[8:1],4/8,7x,6x,5x/1x,
{16}4-8b[16:1],2,5,3,{8}4bx,{16}1,7,2,6,3x,5x,{8}4xh[2:1],3,
2,1,{4}8,{8},3h[4:1]/B4,B5,B6,
7h[4:1]/B8,B1,{4}B2,{16},,4h[4:1]/B5,B6,{8}E7,E8,
8h[#1.142853]/E1,E2,E3,E4,E5,3h[4:1],5,6v3>7v4[8:7],
E
