&title=爱的城堡
&artist=卓文萱
&first=0.2
&des=
&des_5=キャップ
&lv_5=10
&inote_5=(212){4},,,,,,,,{1}4-8[4:5],
{4},2-6[4:5],{1},{2}5-1[4:5],
{4},,,2-6[4:5],
{1},5-1[4:5],
{4},3-7[4:5],{8},,,,,,,6,
{16},,,,,,,,,4,
{2},{8}3b/4b,,,,,,,,,,1/2,
,8,7,8,,6/5,6/5,3,
4,3,4,3,,8,8,7,
7,6,6,5,5,4,4,3/2,
,1/8,,7/6,,8,7,6,
5,6,7,6,,1,2,3,
4,3,2,3,,2,1,8,
7,8,1,2,3,2,1,8/7,
,7/5,,2/3,,1,1,8,
7,8,1,8,,6,6,5,
4,5,6,5,,1,8,7/5,
,7/5,,7/5,6,5,6,5,
,7/4,,6/3,,5/2,1,2,
3b,4,3b,2,,8,8,7,
6b,5,6b,7,,,,2-6[8:1],
,,,7-3[8:1],,,,1-4[8:1],
,8-5[8:1],,,,,,6/3,
,4,5,4,,5/4,5/4,4-8[8:1],
,5-1[8:1],,,,3,,4,
,6,,7,,8,,1h[4:3],
8,2,,4,,,,7/5,
,5,4,5,,1/2,1/2,1/2,
,2<7[8:1],,6>3[8:1],,,,8/7,
,6/5,,4/3,,1/8,,5h[2:1],
4,6,,7,,1,2,1,
2,1,2,1,{4},{8}8,7,
8,7,8,7,,,,1-5[8:1],
,8-4[8:1],,7-3[8:1],,6-2[8:1],,6,
,,,7b/2b,,8,1,8,
1,8,,6/3,{4},{8}4,5,
,1/2,,8/3,,,,7b/4b,
,5b/1b,,7b/3b,,1b/8b,,5b/4b,
,,,7/2,,,,2-6[4:1],
,,,5h[2:1],,,,8>3[4:1],
,,,6h[2:1],,4,4,4,
6/8,7,1,2,1,2,1,4-1[8:1],
,5-8[8:1],,7>2[8:1],,,,7-3[4:1],
,,,7h[2:1],,,,1-5[4:1],
,,,1h[2:1],,7,6,5,
,7/2,,8/1,,6/3,,1b,
,8b,,1b,,8,4,2,
7,5,8,3,7,6,1,4,
6,5,2,7/4,,,,8,
7,8,7,6,7,6,7,6,
5,6,5,6,,4,4,1,
7,5,2,3,7,6,8,4,
2,5,7,1/5,,2,,1-5[8:1],
,7,,8-4[8:1],,2,,8b/1b,
,7,2,6/3,,8,7,8,
7,8,7,8,,,,1,
2,1,2,1,,,,1-4[8:1],
,,,7>2[8:1]/2-6[8:1],,,,7/4,
,5/2,,6/3,,8,7,8,
,1,2,1,,6,5,6,
,3,4,3,,7/2,,8b/4b,
,6b/2b,,7b/5b,,8b/3b,,5b/4b,
,6,7,8,1,2,3,4,
{4},{8}7,8,,8,{4}7,
{8}1,2,,2,{4}1,{8}7/2,8,
8,7,7,6,6,5,5,4,
4,3,3,2,2,1,1,7h[2:1],
,,,6h[2:1],,,,5h[2:1],
,,,4,,5/4,,1b/6b,
8,7,8b/3b,2,1,7b/4b,5,6,
2b/5b,4,3,{16}6,7,8,1,2,3,4,5-1[16:15],{1},{8}2-6[8:7],
,,,,,,,8-4[8:7],
,,,,,,,6<1[8:7],
,,,,,,,6-3[8:7],
,,,,,,,1-4[8:7],
,,,,,,,7b,
,,,1b,{4},{8}4,5,
4,5,{4}4,{8}7/2,1,1,7/4,
,6/3,,5/2,,,,5/2,
,6/3,,7/4,,,,1,
,8,8,8,,7,7,7,
,6/5,,3/4,,8,1,2,
,,,6/3,{4},{8}1,8,
1,6/3,,1-4[8:1],,,,2-6[8:1]/1-4[8:1],
,,,7-2[8:1]/8-5[8:1],{2},{8}6b/3b,
{4},{8}8b/1b,,1,8,1,
8,1,8,1,8,1,8,7,
8,7,8,7,8,7,8,7>2[8:1]/2-6[8:1],
,,,3-6[8:1],,,,7b/4b,
,6b/3b,,5b/2b,,4,5,4,
5,4,5,4,5,4,5,4,
5,4,5,6,7,{4},{8}1-5[8:1]/8-5[8:1],
,,,7-2[8:1]/6-3[8:1],,,,1>4[8:1]/8-5[8:1],
,,,8b/1b,,8,1,8,
1,8,1,8,1,8,1,8,
1,8,1,8,1,{4},{8}7/4,
,,,7/2h[4:1],,7,,1,
8,1,8,1,,8,1,7/2,
,7/2,,6/3,,5/4,,6/3,
,7/2,,8/1,,1-4[8:1],,8-5[8:1],
,1-5[8:1],,8-4[8:1],,8-3[8:1]/7<4[8:1],,,,,,8b/2b,
E
