&title=スピカ
&artist=ロクデナシ
&first=0.022
&des=JDJDH
&lv_5=13
&inote_5=(138)
{4}
,,,,
D8/E8,,D2/E2,,D6/E6,,D4/E4,,
D1,,C,,D5,,
{8}
5/4-8[8:1],3,1b,,
{16}
6/5h[16:3],,,7h[16:3],,,1,,2,,34,,34,,,,2,1,2,1,2,,45,,78,,1,,1,,,,
3/4h[16:3],,,2h[16:3],,,8,,7,,65,,65,,,,7,8,7,8,7,,18,,27,,A3/A6,,A3/A6,,,,
4/5h[16:3],,,6h[16:3],,,8,,1,,26,,26,,,,3,4,3,4,3,,56,,78,,1,,12,,,,
5/4h[16:3],,,3h[16:3],,,1,,8,,73,,73,,6,5,
7-3[8:1],,3,,7/1-5[8:1],,,,1x,,B7/B8/E8,,B7/B8/E8,,,,
{8}
4<6[8:1],3,2-5[8:1],,2,,,,5>3[8:1],6,7-4[8:1],,7,,1x,,
2>5[8:1],1,8-3[8:1],,8,,,,7<4[8:1],8,1-5[8:1],,1,6,6,,
3/4<7[8:1],2,1-5[8:1],,1,,,,6/5>2[8:1],7,8-4[8:1],,8,,1x,,
1/2>5[8:1],8,7-3[8:1],,7,,,,A1,A7,A3,A5,4h[8:1],6h[8:1],2h[8:1],8,
17,6,45,3,2V48[8:2],4,5,6h[8:2],,1,2,3,4-8[8:1],5-1[8:1],4x,5x,
,2,8,7,1-6[8:1],6q3[16:3],1,5,,4,2,1,8V62[8:2],1,2-4[8:1],3,,
1,8,7,6<1[8:1],5,4,3h[8:2],,2,1,8,7-2[8:1],6-3[8:1],7,6,
1h[8:1],3h[8:1],5h[8:1],7h[8:2],,5,3,1,A8,A2,A6,A4,5h[8:1],3h[8:1],7h[8:1],1,
{4}
8-5[8:4],,1-4[8:4],,6-2<7[8:4],,,,
{8}
3h[8:2],,5,5,46,4,3/5>2[8:1],6,7/5b<8[8:1],,2/5bw1[8:1],,5b,,
2/8>6[8:2],7,8/6b>8[8:2],,7b,,5bxh[8:2],,7,8,16,2,3/8-4[8:1],4,3,,
7/1<3[8:2],2,1/3b<1[8:2],,2b,,4bxpp4b[8:2],,8b/4qq4[8:2],,1,8,7>2[8:1],6,5,,34,2,
1v3[8:1],1v7[8:1],1x-5b[8:1],,,,4x/6x,7,8<5[8:1],2v5[8:1],8>5b[8:2],2,8,,
1-4[8:1]*-5[8:1],,1b,,7w3b[8:1],,7b,,
1/5<8[8:1],2,3/5bx>2[8:1],4,7/5bx-1b[8:1],6,5bx,,2bxv5[8:1]/8bxq4[8:1],,
{4}
2b/8b`Cf,,
{8}
2x/7x,36,36,,
{16}
2,1,2,1,2,,34,,6/5>2[8:1],,8,,8,,,,
7/1h[16:3],,,3h[16:3],,,5,,4-7[8:1]/6,,3,,24,,,,
7x,8,7,8,7,,18,,27,,A3/D4/E4/A6/D6/E6,,A3/D4/E4/A6/D6/E6,,,,
7/5h[16:3],,,3h[16:3],,,1,,2/8-3[8:1],,7,,68,,,,
3x,4,3,4,3,,56,,8/7<4[8:1],,1,,1,,,,
2/8h[16:3],,,6h[16:3],,,4,,5>2[8:1]/3,,6,,75,,,,
8,1,8,1,8,,27,,36,,A4/D4/E4/A5/D6/E6,,A4/D4/E4/A5/D6/E6,,,,
{4}
2x-5[8:3],8>3[8:1],8,,4<7[8:3],1-6[8:1],1,,8-4[8:3],2>5[8:1],2,,7>2[8:3],5-1[8:1],5,,
4-6[8:1]/3,3,7-3[8:1]/2,2,1-5[8:1]/8,8,6/5>2[8:1],8x,
1-7[8:2],7-2[8:2],2-6[8:2],6-3[8:2],3V51[8:4],5h[8:2],,,
{8}
8/2-6[8:1],8,7,7,1/5-8[8:1],1,2,2,6/3p7[8:1],6,5,5,1/4<8[8:1],1,2,2,
3/1<6[8:1],3,14,4,6/5>2[8:1],6,57,7,1/8-4[8:1],1,28,2,35,27,
{16}
1,8,1,,
{4}
1>4[8:3],,8<5[8:3],,2p6[8:3],,
{16}
4,,5x,,4,5,4,5,
{8}
4q8[8:1],3,2,1,1q5[8:1],8,7,6,6,57,3,24,18,
{24}
E4,B4,B5,
{4}
E6/C,1-4[8:4],,8-5[8:4],,3-7>2[8:4],,,,
{8}
6h[8:2],,4,4,53,5,6/4<7b[8:1],3,2/4b>1b[8:1],,7/4bw8b[8:1],,4b,,
7/1<3[4:8],2,
{4}
1b/3,,A2,,A1,,A8,,
7>4[4:6],,A4,,A5,,A6,,
5,5,46,46,35,24,18,27,
{8}
36,3,5,5,4,4,6,6,3,24,6,57,18,
{24}
E6,B5,B4,
{8}
E4/1x<3[8:2],2x,1/3bx<1b[8:2],,2b,,4bh[8:2],,2>5b[8:1],1,2/8q4[8:1],7,8/6>3b[8:1],7,26,,
2/8>6[8:2],7,8/6b>8b[8:2],,7b,,5b-8-2b[8:2],,5/2b<5[8:2],,5,4,3q7b[8:1],2,1,,68,7,
8v6b[8:1],8v2b[8:1],8x-4[8:1],,,,5x/3x,2,1>4[8:1],7v4[8:1],1<4b[8:2],7,1,,
8-5[8:1]*p4[8:1],,8b,,3v6b[8:1]*p7b[8:1],,3b,,
8x/4x>1[8:1],7,6/4b<7[8:1],5,2/4b-8b[8:1],3,4b,,7bv4[8:1]/1bp5[8:1],,
{4}
7b/1b`Cf,,
{8}
18,27,27,,
{16}3>8[8:1],6,4,5,3,,7,,6-4[8:1]/1-5[8:1],,2,,16,,,,
7/3h[16:3],,,1h[16:3],,,7,,6-3[8:1],,8,,2,,,,
7<4[8:1],2,8,1,7,,3,,2-8[8:1]/5-1[8:1],,6,,52,,,,
3/7h[16:3],,,5h[16:3],,,3,,2-6[8:1],,8,,6,,,,
4-1[8:1],5,3,6,4,,8,,2-5[8:1]/7-4[8:1],,36,,27,,,,
{8}
1/8h[8:7],,5,5,4,4,3,3,
{16}
D1,D8,D7,D6,D5/E5,,D1/E1,,C,,3b/7b,,1b/5b,,,,,,,,E
