&title=AiKnown
&artist=Se-U-Ra
&first=0
&des=5月11日截稿5月11日寫
&lv_5=14+
&inote_5=(245)
{1},,
{24}1x/8x,2x/7x,
{384}3xqq5[12:11],6xpp4b[12:11],,,{96},,,{16},,{4},,,
{4},,E4,2bx/C,E5,3bx/B6,A5,4bx/A6,
{1}Chf[2:3]/3x>6<3[2:5],,,7>3[1:1]*<3[1:1]/3,{4},,
2/1pp4[8:5],8h[8:1],7h[8:1],6-1[32:5],6p2[16:3],,
{24}A8,E8,B7,{4},{24}B3,E4,A4,{4}5x-8[32:5],5x,
{8}2,1,3,{16}7x,6,{4}5pp8b[8:5],1,2,3,{8}2,1,37,,
{8}8x/B4/E5,,8x/E7/B6,,8x/E3/B2,,
8x/B4/E5,{16},E7/B6,{8}8x,C,E3/B2/8x-4b[32:5],,1,1,1,1,1,1,
{16}1,5,1,5,1,5,1,5,1-5b[32:5],5,1s5[16:15],5,{2}1x,,,
{24}7xh[8:3]/D6/E6,A5,D5,A4,D4,A3,D3,A2,D2,{8},,86,6/8-4[32:5],,
5h[8:5],,{24}D7/E7,A7,D8,A8,D1,A1,D2,A2,D3,{8},,
48,4/8-4[32:5],,3h[4:1],,5v6-8[8:3]*v6[384:85],2h[4:3],,,,,,
{16}1x,8x,{12}7x,6x,5x,{8}4x,3x<1[2:1],{16},2x,,,,,1xp4[16:5],,,2x,{8},,,
{24}D3/E3,A2,D2,A1,D1,A8,D8,A7,D7,
{8}5xh[4:1],,4x,36,,2/4-6-8-2[8:3]*-6[8:1]*-6-8[4:1],,,,,,,8bx,,,
6-3[32:5],5bx,4-1[32:5],,7bx<4[32:5],,8,1,2h[4:1],,
{16}1bx,8x,{12}7x,6x,5x,{8}4bx,3x,{16},2x,B6/E7,,B3/E3,,E1f,,{8},,,
{24}A6/3xh[8:1],D6,A5,,,,B6/2xh[8:1],B5,E5,{8},
1-5[32:5],8,7>2[4:1],,C,,3h[4:1],,5,C,7>2[4:1],,1,,C,,
{24}A3/6xh[8:1],D4,A4,,,,B3/7xh[8:1],B4,E5,{8},
8-4[32:5],1,2<7[4:1],,C,,6h[4:1],,4,C,2<7[4:1],,8,,C,,
{192}3xh[8:3]/E6,,,,,,,,,,E5,,,,,,,,,,E4,,,,,,,,,,
E3,,,,,,,,,,E2,,,,,,,,,,E1,,,,,,,,,,E8,,,,,,,,,,E7,,
{8},,24,2-6[32:5]/4,,C,,7x,8x-4[32:5],1x,C,,
26,2-6[32:5]/6,,C,,7x,8x-4[32:5],1xh[8:1],C,2xh[8:1],
,7x-3b[32:5]/3x-7b[32:5],,C,,
2xh[8:1]/8hx[8:1],,{16}1x,2,3,4,1x,8,7,6,
{4}Cxh[2:1],7x<2[1:1],,,,,,,E6/E5f/E4/A5/A4/D4/D6,,
{8}3bh[8:15],,,E5,,,A5,,,E6,,,A6,,,E7,Ch[8:8],,
A7,,,E8,,,8bx,8bxw4b[32:5],,{24}B8,Cf,B4,{8}A4,,,,
6h[8:1],4h[8:1],5h[8:1],3h[8:1],7h[8:1],2h[8:1],{16}8,1,8,1,
{8}7h[8:1],5h[8:1],4h[8:1],2h[8:1],1x-5b[32:5],,,,
2x-6[32:5]/8x-4[32:5],2x/8x,,,1x-5[32:5],,,,
E7,,E3,,C,,18,,
{24}2bx,3,4,{16},{24}8bx,7,6,{16},{24}3bx,4,,7bx,6,,,,,
{24}2bx,E3,E4,{16},{24}8bx,E8,E7,{16},
{24}1bx,B1,C,{16},{24}6bx,E6,E5,{16},2bhx[4:1],,,,
{24}7bx,6,5,{16},{24}1bx,2,3,{16},{24}6bx,5,,2bx,3,,,,,
{24}7bx,E7,E6,{16},{24}1bx,E2,E3,{16},
{24}8bx,B8,C,{16},{24}3bx,E4,E5,{16},A7/D7f/E7/A6,,,,
{16}3bx/8,,2,1bx,3,,7bx,,5bx/6,,,,
3bx/4,,2,1bx,3,,7bx,,1,5bx,,,3bx/Cf,,,,
{8}1xh[8:1],2xh[8:1],3xh[8:1],4xh[8:1],5xh[8:1],
1xh[8:1],2xh[8:1],3xh[8:1],4xh[8:1],5xh[8:1],
1xh[8:1],2xh[8:1],3xh[8:1],4xh[8:1],5bx,,
{16}E6,A6,E5,A4,B6,E7,B4,E4,B7,A7,B3,A3,B8,E8,B2,E3,
E1,A8,E2,A2,{1}1bx,,
5<4[4:9]/4,{2},{32}C,B4/B5,,,{16},,{4},{1},
4/8<4[1:1]*>4[1:1],{2},
{4}5/6qq3[8:5],7h[8:1],8h[8:1],1p5[16:3],1-4[32:5],,
{24}A6,E7,B7,{4},{24}B3,E3,A2,{4}8x-5[32:5],8x,
{8}3,4,2,{16}5x,6,{4}7>3b[3:1],2>5b[4:1],5<8b[4:1],8,{8}2,1,37,,
{8}8x/B4/E5,,8x/E7/B6,,8x/E3/B2,,
8x/B4/E5,{16},E7/B6,{8}8x,C,E3/B2/8x-4b[32:5],,1,1,1,1,1,1,
{16}1,5,1,5,1,5,1,5,1,5,1xh[8:3],5xh[16:5],{4},
{24},2x/6x,3x/7x,{384}4xqq1[16:11],8xqq5b[16:11],,,{96},,,,,{16},
{4},,,,Cf/B3/E3/B6/E7/B7/B2,,
{8}3h[4:1]/5h[4:1],,,4h[4:1]/6h[4:1],,,5-1b[32:5],,,,,,
6h[4:1]/4h[4:1],,,5h[4:1]/3h[4:1],,,4-2[32:5]*-6[32:5],,,,,,
{4}7p4[1:1],,,,,,
3b/5,7b/4,2b/6,{8}1/8b,1b/8,1/8b-4[32:5],1b/8,
{24}1/8b,Cf,,{16},,
{4}2-5[32:5]/6-1[32:5],26,
{16}8x/4x,37,26,15,{4}4x/8x-4[32:5],8<5[32:5],8,
2-5[32:5]/3-8[32:5],23,
{16}7x/3x,26,15,84,{4}3x-6[32:5]/7x-2[32:5],73,1b/5b,
{8}8-6[8:1],2-8[8:1],8-4[32:5],2,,,
6-8[8:1],2-6[8:1],6-4[8:1],2,,,
{16}7x,6,5,4,8x,1,2,3,5x,6,7,8,{4}1x/3x-5-7-1[8:3]*-5[8:1]*-5-7[4:1],,,
6x<5[4:4],,,,,,1s5[4:3],,,5-7[32:5]*-3[32:5],,,
2pp5[1:1]/8qq5[1:1],,,,,,
6b/4,2b/5,7b/3,{8}8/1b,8b/1,8/1b-5[32:5],8b/1,
{24}8/1b,Cf,,{16},,
{4}7-4[32:5]/3-8[32:5],73,
{16}1x/5x,62,73,84,{4}5x/1xw5[32:5],1,
7x-2[32:5]/3x-6[32:5],37,
{16}5x/1x,84,73,62,{4}1x-4[32:5]/5x-8[32:5],5<4[2:1]/1,Cf,,
{8}8x,8,8-6b[32:5]*-4b[32:5],8,,,3x/5x,35,3-1b[32:5]/5-1b[32:5],35,,,
{16}2x,3,4,5,1x,8,7,6,4x,3,2,1,
{4}8x/6x-8-4-2[2:1]*-8[384:55]*-8-4[384:136],,,1bxw5[1:1],,,,,,
6xh[4:1],5-1[16:3],{12}7x,6x,5x,
{4}4x,4-8[16:3],{12}2x,3x,4x,{8}5x-8[32:5]*-2[32:5],,
5b,,{12}7x,6,5,
{8}1-3[32:5],4,1-5[32:5],6,1,7,8-4[32:5]/4-2[32:5],,84,,
{12}1x/5x,62,73,4-1[32:5]/8-5[32:5],,,48,,,
{12}6x,7,8,{8}2-4[32:5],1,2-6[32:5],6,2>8z4b[8:5],8,2x,,{4},,
2b/7b,1-5[16:3]/3,{12}3x,2x,1x,
{4}8x,8-4[16:3]/6,{12}6x,7x,8x,{8}1xw5[32:5],,
1b,,{12}2x,3,4,
{8}8-6[32:5],5,8-4[32:5],3,8,2,1x-5[32:5]/5x-7[32:5],,
1>4[32:5]/5,,8,,7x-3[32:5]/3x-1[32:5],,7<4[32:5]/3,,8,,
2x-6[32:5]/6x-8[32:5],,2>5[32:5]/6,,1,,
{16}1x,8,7,6,1x-5[32:5],2,3,4,1b,,,,
{4}E4,2bx/C,E5,3bx/B6,A5,4bx/A6,
{24}7xh[8:1]/D1/E1,A1,D2,A2,D3,A3,{8}5bx,46,,75,{16}6bx,,4x,3x,{8}2x,
8,7bxp3[8:3]/1,,2,1,8bx,,2,,3h[4:1]/1bx,,
7-5v4[8:3]*-5[384:59],,2bx,,,,
{16}6x/3bx,7x,{12}8x,1x,2x,{8}3x,4bx,
{16}5x,,,6x/8xz4[16:8],,,5bx,,,,,,,,6bx,,,,
{24}D4/E4,A3,D3,A2,D2,A1,{8}7bx,86,,2,3/8bx,,
1-4[32:5]*-6[32:5],28,1bx,,3x/7x,,2bx/Chf[8:1],,,,
6xh[8:1],{24}3bx,4x,5x,7xh[8:1],,,3x,4x,5x,{8}8bx,,,
5bx/3,2h[4:1]/6,,
{16}1bx,8x,{12}7x,6x,5x,{8}4bx,3x,{16},2x,B6/E7,,B3/E3,,E1f,,{8},,,
{24}A3/6xh[8:1],D4,A4,,,,B3/7xh[8:1],B4,E5,{8},
8-4[32:5],1,2<7[4:1],,C,,6h[4:1],,4,C,2<7[4:1],,8,,C,,
{24}A6/3xh[8:1],D6,A5,,,,B6/2xh[8:1],B5,E5,{8},
1-5[32:5],8,7>2[4:1],,C,,3h[4:1],,5,C,7>2[4:1],,1,,C,,
{192}6xh[8:3]/E4,,,,,,,,,,E5,,,,,,,,,,E6,,,,,,,,,,
E7,,,,,,,,,,E8,,,,,,,,,,E1,,,,,,,,,,E2,,,,,,,,,,E3,,
{8},,75,7-3[32:5]/5,,C,,2x,1x-5[32:5],8x,C,,
73,7-3[32:5]/3,,C,,2x,1x-5[32:5],8xh[8:1],C,7xh[8:1],
,2x-6b[32:5]/6x-2b[32:5],,C,,
7x/1x,17,{16}8,8,8,8,8w4b[32:5],8,8,8,{4}Cf,,,
{1}2pp1[8:7]/6pp5b[2:5],{4},,4qq5[8:7],,,,,,
Chf[1:1]/5s1b[8:31],,,,,,
{16}8x,7,6bx,5,8x,7,6,5,8bx,7,6,5,
2x,3,4bx,5,2x,3,4,5z1[16:13],2bx,3,4,5,
