&title=またおいで
&artist=可不
&first=0.12
&des=SikA-
&lv_5=13
&inote_5=(80)
{1},
{8},,,,2>4[8:1]/6h[8:1],4<6[8:1],7h[8:1],,8,8,,
{16}2/6>4[8:1],3,4>2[8:1]/7h[16:2],,{8},8,8,,
{16}1<7[8:1],2,3>1[8:1],,{8}1,,7h[8:2],8,{16}8,6,1h[8:1]/5<2[16:5],,{8}7h[4:1],5,,,
{16}7/3<5[8:1],6,5<7[8:1]/2h[8:1],,{8},1,1,,
{16}2/6>4[8:1],3,4>2[8:1]/7h[8:1],,{8},8,8,,
{16}8>2[8:1],7,6<8[8:1],,{8}8,,2h[8:1],1,
{16},7,62,,{8}5p5[4:1]/1h[8:1],7h[8:2],5>1[4:1],,7,
{8}6b,5pp6[4:1],5,
3,4qq3[4:1],4,
6,5pp5[4:1],5,
{16}3,,4qq4[4:1],4,4,,
{8}4,5pp6[4:1],6,
5,4qq3[4:1],3,
4,5pp8[8:3],6,5b,,,
2h[8:3],7,6,5h[8:2],{16}2,3,4,,
{16}5,4,3<5[8:1],2,{8}1>3[8:1],3,1<5[4:1],7,
{16}4,3,2>4[8:1],1,{8}8<6[8:1],2-6[8:1],8,2,
{16}5,5,6>4[8:1],7,{8}8<6[8:1],6,8>4[4:1],2,
{16}5,6,7<5[8:1],8,{8}1>3[8:1],7-3[8:1],1,7,
{8}4,3<7[8:2],2,1pp1[8:3],,1,8,7,6,5pp5[8:3],,
{16}1,2,{8}3,2,2,1/5>3[8:1],3>6[16:5]/7h[8:1],5,8h[8:2],,,4b/8b,
{8}2q2[4:1]/6^4[8:1],4>8[8:2],26,,,,
7p7[4:1]/3^5[8:1],5<1[8:2],73,,,,
2/6^4[8:1],4>8[8:2],2h[8:1],,4,4q4[4:1],,4<7[4:1]*>1[4:1],5,,,
{8},,{16},8,{8}8qq8[4:1],1pp1[4:1],8,1,,
{16}7,6,{8}5pp5[4:1],4qq4[4:1],5,4,,
{16}6>3[8:1],7,{8}8-4[8:1],6,8,2,1<7[8:1]/5p5[4:1],7<3[4:1]/3,15,,,5h[8:2],,,
{8}53,4>1[8:1],,46,5<8[8:1],,25,4p8[8:1],,47,
(160)
{32}5,,,,,,,,,,,,,
(80){8}1>3[8:1],5<7[8:1],1,5,,48,2h[8:4]/6h[8:4],,,,,4qq2[8:2]/8qq6[8:2],26,,,,
{8}2q2[4:1]
/6>4[8:1],4>8[4:1]/8,2<6[4:1]/6,,,4b,,{16}4-8[8:1],3,2>4[8:1],,{8}4<7[8:1],,8b,,
{16}2,3,4q4[4:1]/8>2[8:1],,{8}2>6[4:1]/6,4<8[4:1]/8,,,{16}3,2,1b>3[8:1],,{8}3<5[8:1],5p1[16:3],7h[8:1],,
{16}8,7
,6q6[4:1],,{8}1<6[8:1],6>3[8:1],1b,,{16}8-4[8:1],1,2<8[8:1],,{8}8<5[8:1],,4b,,
{16}3,2,1<7[8:1]/5p5[4:1],,{8}7<3[4:1]/3,5>1[4:1]/1,,,{16},7,6<8[8:1],,{8}8>2[8:1],2>6[16:3],4,,
{16}1,2,7p7[4:1]/3<5[8:1],,{8}5<1[4:1]/1,7>3[4:1]/3,,,
{16},6,7b,,48,37,
{8}26,1b<7[8:1]/5b>3[8:1],
{128}3>1[8:1],7<5[8:1],,,,,,,,,,,,,,,
{8}1p1[4:4]/5p5[4:4],,,{2},,,{8},
{8}6,5pp6[4:1],6,
3,4qq3[4:1],3,
6,5pp5[4:1],6,
{16}3,,2pp3[4:1],2,2,,
{8}5,6pp7[4:1],7,
3,2pp2[4:1],3,
7,6pp6[4:1],7,
{16}2,,3>8[4:1],3,3,,
{8}5,6>3[4:1],7,
8,1<6[4:1],2,
3,4>1[4:1],5,
{16}6,,7-2[4:1],7,7,,
{8}6,5-8[4:1],4,
3,2-5[4:1],1,
8,7-3[4:1],6,
{16}5,,6,7,8bp8[4:1]*q8[4:1],
