&title=一事无成
&artist=周柏豪 郑融
&wholebpm=101
&first=0
&des=uapy
&des_5=uapy
&lv_5=13
&inote_5=(101){1},
{4}4/6h[8:1],
5/3h[8:1],4/6h[8:1],5/3h[8:1],
4/6h[8:1],5/3h[8:1],{16}6,5,6,5,6,5,{8}8b,
1>4[4:1],{4},{8}8,{2}8<5[4:1],
{8}2>5[4:1],{4},{8}8<5[8:1],,8,4,1/2,
8/3<6[8:1],4,8/3,7,8/7<4[8:1],1,7/8,2,
{4}1h[8:1],{8}1h[16:1],1h[16:1],{16}5,4,5,4,{4}5b,
{8}7/2-4[16:1],1,2/7-5[16:1],8,7/2-4[16:1],1,2/7-5[16:1],8,
7,{16}1,1h[16:3],{8},2,2-5[16:1],8,{4}7/2b,
{8},{16}6,5,{8}6,7/4,5/4,3,5/4,{16}6h[4:1],5h[16:3],
{4},{8}1/8-4[8:1],7,8/1-5[8:1],2,1/8-4[8:1],7,
{4}8/1,{8}2-8[8:1],5,2-6[8:1],6,2-4[8:1],7,
2,8,6/5-2[8:1],4,6/5,{16}7,7h[16:3],{8},,,{16}1,
1,{8}8/7,6,8/7-5[16:1],{16}1-3[16:1],7/8-4[16:1],,1,,8,
{4},{8}7/2-5[8:1],3,2/7-4[8:1],6,7/2-5[8:1],3,
{4}2/7,{8}7-4[8:1],8-3[8:1],7,8,5w1[8:1],4,
{4},{8}8/2,3,6/4-8[8:1],7/8-4[8:1],{4}4b,
7-2[8:1],{8}7/3-5[8:1],5-1[8:1],3,8,,8,
{4}1/7-5[8:1],{8}7/1-3[8:1],8,7/1,8,,1,
{4}7/2qq8[8:1],{8}2/8>5[4:1],6,5,7,,8,
{4}7-4[8:1]/3-8[8:1],7>3[8:1]/3<7[8:1],3b/7b,{8}2,1,
{4}3-6[8:1],3/7-2[8:1],{8}7/4,{4},{8}1/2,
7/4,7/8,5/2-6[8:1],1/8-4[8:1],2,8,,1>4[8:1],
2,1/8<5[8:1],7,{16}1pp4[4:1],1h[16:3],{8},,,5-8[8:1],
6,5/4-1[8:1],3,{16}4,8h[16:3],{8},7h[8:1],6h[8:1],5h[8:1],
4-1[8:1],1-3[16:1],4,8,8-5[8:1],5-7[16:1],8,4,
3-8[8:1],8-2[16:1],3,7,6,2<7[8:1],6>3[8:1],2,
6b,8>4[4:1],4,4<8[4:1],,8>4[4:1],4,4-1[8:1],
,8-3[8:1],7-4[8:1],8,{32}7,{16},{32}2,,,,1-5[0.6653##0.2198],{8},8,
7/1b,{2},{8}5<8[16:1],{4}5,
{8},{16}2,1,{8}2h[8:1],1h[8:1],3h[8:1],{16}4,5,,7/6,,5/4,
{4},{8}5/4-8[8:1],3,4/5-1[8:1],6,5/4-8[8:1],3,
{4}4/2,{8}1,1,7-2[8:1],2-6[8:1],7,3,
4-8[8:1],4,5-1[8:1],5,8-4[16:1],{16}8,8,{8},,,{16}1,
1,{8}3>6[4:1],4,3/6<3[4:1],5h[8:1],,{16}4,4,
{4},{8}3/5-2[8:1],4,7/5-8[8:1],6,4/5-1[8:1],5,
{4}5,{8}8/7-4[8:1],4/3-8[8:1],7,3,5-1[8:1],6,
{4}5,{8}7/2,5/4h[8:1],7,4/5h[8:1],1b,1b,
6/2-6[8:1],{16}3,4,{8}2,7,1/8-4[8:1],7,8/1,2,
1>4[8:1],2,1/8<5[8:1],7,{2}8p4[8:1],
{8}6/2,7/3,{4}6h[8:1]/2h[8:1],{8}1/5,8/4,{4}1h[8:1]/5h[8:1],
{8}1-5[8:1],1,8-4[8:1],8,7-3[8:1],{16}6,6h[16:3],{4},5<8[8:1],
4>1[8:1],{8},,,1/8-4[8:1],
7/2,{16}8,1h[16:3],{8},4,2/5,6/3,,4,
5-2[8:1],2-6[8:1],6-1[8:1],{16}1>5[8:1],8h[16:3],{8},,,7,
6/2,1/5,8/4,{16}7/3,7h[8:1]/3h[8:1],{8},3-8[8:1],8>4[8:1],3,
{16}7b,7,6,6,{8}5h[8:1],6,7<5[16:1],{16}5,7,{4},{16}3,
3,4,4,{8}2>4[8:1],5,2V86[16:3],{16}6,6-2[8:1],{8},5,
4-6[8:1],4,4-1[8:1],4,4-7[8:1],4,4z8[4:1],4,
{4}4/8z4[4:1],4-8[8:1],{8},5,5,5,
6,6h[4:1],7,7h[4:1],8,8h[4:1],1,1h[4:1],
2,8h[4:1],7,1h[4:1],3,5h[4:1],6,4h[4:1],
5pp1[4:1],5,{4}5,{8},8-4[8:1],7,8b,
{16}3,3,5,5,{8}4h[8:1],{16}6,7>2[16:3],,5,5,7,{4}7,
{8}3-7[16:1],1<5[16:3],3,{16}1,1,,4h[8:1],,5,{4}4,
{16}7-4[8:1],8,7,8,{8}7,{16}1,2,,2,1-5[8:1],2,{8}1,1,
3h[16:1],3h[16:1],{16}4h[16:3]/5h[8:1],{8},{16}6h[8:1],,5h[16:1],7h[16:1],6h[16:1],{8}8h[16:1],7-5[0.2911##0.1426]/5-1[0.2911##0.1426],
{4},,,5b,
6h[1:1],5,,5,
3h[1:1],4,,4,
7h[1:1],8,,8,
2h[4:3],1,,1,
{8}7-4[8:1],{16}8,1,{8}7b,2<7[8:1],2>5[8:1],{16}2-6[8:1],2,,2,,2,
{4},{8}5-7[8:1],4-8[8:1],5-1[8:1],4-2[8:1],5<4[4:1],4,
{4}5,{8}1,2-7[8:1],3,2/6-3[8:1],5,6/8,
{4}1h[4:1],{8}4,3,2b/1w5[8:1],6/5-1[8:1],{4}1b,
7-4[8:1],{8}7/3-7[8:1],2,3/4,5h[8:1],,1,
{4}4/2-6[8:1],{8}2>5[8:1],5,2,6,,7,
{4}3/8<6[8:1],{8}8/3<5[8:1],2,3/8,1-5[8:1],,1,
{4}8V25[4:1]*V63[4:1],{2},{8}6/2-6[8:1],3,
{4}2/6-2[8:1],6/2qq8[8:1]*pp4[8:1],{8},,,1/2,
3,8/1,6<1[8:1],1<6[8:1],6,{4},{8}2-6[8:1],
1,8-4[8:1],7,{16}6,6h[16:3],{8},5,,3-1[8:1],
7-5[8:1],3-7[8:1],7,{16}3,3,{8},8,1w5[8:1],8/2,
{1}1b,
E
