&title=闇夜舞踏会 -緋碧と蝶のためのmasquerade-
&artist=ここなつ
&first=0
&des=NekoMuseigen
&lv_5=13+
&inote_5=(160){1},,
{4}
5h[16:60]/2b>1[4:6],,,,,,,,3b<2[4:5],,,,,,,{16}4,5,4,5,
2b,,2,1,2>5[8:2],,2,,5,,6,,7,,,,
7/3,,7,8,7<4[8:2],,7,,4,,3,,2,,,,
1/6b,,1,8,1>4[16:4],,1,,4,,5,,6,,7,,
83,7,6,5,8,1,2,3,4>1[8:1]/5<8[8:1],,36,,,,,,
6/1b,,6,5,6pp1[16:5],,6,,1b,,,,,,,,
8b/3,,3,4,3qq7[16:5],,3,,7b,,,,,,,,
2b/6,,6,5,6pp3[16:6],,6,,5,,4,,3,,2,,
1h[1024:1],,2h[1024:1],4h[1024:1],3h[1024:1],
5h[1024:1],4h[1024:1],6h[1024:1],5h[1024:1],,7h[1024:1],,8,1,6,3,
2bpp2[8:4]/7bqq7[8:4],,,,,,,,,,,,,,,,
1b,8,3,6,2b,7,4,5,1bp8[8:3],8,3,6,,,,,
{8}5,5h[8:16],,,3,,4,4,6<2[8:3],,,,,,,
2,3,3h[8:7],,,5,,4,4,2p5[16:4],,4p7[8:2],,,,5,6,
7h[8:2]/4,,4,7,8h[8:2]/4,,4,8,
7>2[8:1]/4,,4,,4/2<7[8:1],,4,,
7h[8:2]/4,,4,6,54,,46,,
4/7p4[4:2],,3,,2,,1,2,
8h[8:1]/3h[8:1],,8h[8:1],3,4>2[8:1]/8h[8:1],,8h[8:1],,
1q5[8:1]/8h[8:1],,8h[8:1],,6>3[8:1]/8h[8:1],,8h[8:1],,
2h[8:1]/8h[8:1],,2/8h[8:1],3,4h[8:1]/8h[8:1],,4/8h[8:1],3,
2pp8[4:2]/8,,7,,6,,5,5,
4b<1[8:3]/3,,3,3,3,3,3,4,
5b>7[8:3]/6,,6,6,6,6,5,4,
{16}
3qq3[16:3],4,2,5,3b,,,,6pp6[16:3],5,7,4,6b,,,,
3,4,2,5,1-5[8:1],,78,,1bw5[8:1],,,,,,,,
83,,3,4,3>8[8:1],,8<5[8:1],,5>2[8:1],,,,,,8,7,
6v1[8:1],,6,,2>5[8:1],,2,,8w4[8:1],,8,,,,,,
62,,6,5,6<1[8:1],,1>4[8:1],,4<7[8:1],,,,,,1,2,
3v8[8:1],,3,,7<4[8:1],,7,,1V35[16:3],,1,,,,,,
{8}6h[8:3],7,8,1qq5[16:5],2,3,4,,3h[8:3],2,1,8pp3[16:5],7,6,5,,
7h[8:3],8,1,2<6[16:3],3,4,5>1[16:5],,6,6,7,7,1/8,,,,
{24}5>3[16:2],,,,,,,,,,,,5>2[16:3],,,,,,,,,,,,5>1[16:4],,,,,,,,,,,,5>8[16:5],,,,,,,,,,,,5>7[16:6],,,,,,,,,,,,5>6[16:7],,,,,,,,,,,,
5>3[16:2]*>2[16:3]*>1[16:4]*>8[16:5]*>7[16:6]*>6[16:7]*>5[16:8],,,,,,,,,,,,,,,,,,,,,,,,
{16}2b/8b,,3,1,2z6[8:3],,3,,4,,,,,,,,1b/7b,,8,,7s3[8:3],,6,,5b,,,,,,,,
8b/3h[8:2],,1,,2,,3,,7h[8:2]/4b,,5,,6-1[8:1],,7,,6/3-8[8:1],,,,3/5-1[8:1],,,,5/4,,,,8h[8:2]/2,,,,
6,7,4,5,2,3,1,8,2,6,4,5,1b,,,,
8-4[8:1]/1,,7,2,8,,3,,2-5[8:1],,3,1,2,,6,,7-4[8:1],,6,1,7,,3,,2-6[8:1],,3,5,2,,7,,
8<3[16:3]/3,,7,2,8,,,,1>6[16:3],,2,7,1,,,,8<2[16:3],,6,2,8,,,,1>7[16:3],,3,7,1,,,,
8-3[8:1],,7,5,8,,4,,2-6[8:1],,3,4,2,,5,,8-4[8:1],,6,5,8,,3,,2-5[8:1],,3,4,2,,6,,
7>4[16:3]/4,,6,5,7,,,,2<5[16:3],,3,4,2,,,,8>6[16:3],,6,4,8,,,,1<3[16:3],,3,5,1,,,,
7-4[8:1],,8,1,7,,2pp6[8:3],,3,,1,,8,,,,7p3[8:1],,6,8,7,,1pp5[8:3],,2,,8,,7,,,,
6-1[8:1],,7,5,6>2[8:2],,2,,2<5[8:2],,,,5>5[16:8]*<5[16:8],,,,,,,,,,,,,,,,,,
15,62,7-3[8:1]/3,,,,7/3,,1,,2-5[8:1],,5>8[16:3],,8,,7,,6qq2[8:3]*pp2[8:3],,,,,,,,,,,,,,15,26,7/3b,,,4/8b,,,5b/1,,6/2b,,,3/7b,,,8/4b,,1/5b-1[8:1],,,,,,,,5bw1[8:1],,,,,,,,
3b,6,4,5,1h[8:2],,7,,5b,2,4,3,8h[8:2],,2,,4b,7,5,6,1h[8:2],,8,,6b,3,5,4,8h[8:2],,1,,{16}3b,4,2,5,1h[8:2],,7,,6,5,7,4,8h[8:2],,2,,3,5,2,6,1,,78,,6,4,7,3,8,,12,,
3,4,1,8,3h[8:2],,5,,6,5,8,1,6h[8:2],,4,,3,4,8,7,3h[8:2],,5,,6,5,1,2,6h[8:2],,4,,
3b,4,1,8,3,4,1,8,3,4,1,8,4,5,1,8,5b,6,2,1,5,6,2,1,5,6,2,1,4,5,1,8,3b,4,8,7,2,5,1,6,4b,7,3,8,2b,6,1,5,8b/4b,,4,4,4,,35,,26,,17,,8,,1>8[8:3]/7,,26,,,,,,,,{4}4b>5[8:10],,,,,,,,,,,,,,,,,,,
