&title=旋律とカナリア
&artist=葉月ゆら
&first=0.01
&des=おにねこ
&des_5=NekoMuseigen
&wholebpm=132
&MusicStart=59.9
&MusicEnd=103.5
&lv_5=13
&inote_5=(132)
{1},
{16}
7/5h[16:4],,,,4h[16:3],,,3,4h[16:7],,,,5,,,3,
4h[16:7],,,,5,,,3,4,,45,,56,,,,
5h[16:4]/7,,,,4h[16:3],,,3,4h[16:9],,,,5,,,2h[16:3],
,,4,2,6,5,6,3,4-8[8:1],,7,,7,,,,
6/5-1[8:1],,,,53,,,4-2[8:1],,6,5,,7h[16:3],,,4-2[8:1],
,6,5,,7h[16:3],,,4-8[8:1],,,2,,2h[16:4],,,,
4-8[8:1],,,,46,,,5-7[8:1],,3,4,,2h[16:3],,,1,
,2,4,3,6,5,7,8-4[8:1],,,3,,3,,,,
1h[8:4],,,,3,,4,,5-2[8:1],,,,6,,5,,
4-7[8:1],,,3,3,,1h[8:3],,,,,,6,6,5,,
4<7[8:1],,,3,3,,2,,3>8[8:1],,,4,4,,5,,
4-7[8:1],,,,1-6[8:1],,,,8-3[8:1],,,,5-2[8:1],,,,
8h[8:4],,,,6,,5,,4-7[8:1],,,,2,,3,,
4-8[8:1],,,6,6,,7h[8:3],,,,,,2,2,4,4,
8>3[8:1],,,7,7,,6,,7<4[8:1],,3,,2,,1-6[16:6],,
2,,,2,,,4h[8:3],,,,,,8b,,,,
1,,1h[8:3],,3,,4,,5-2[8:1],,5,,6,,7,,
8>3[8:1],,,4,4,,4h[8:3],,,,,,7,7,1,,
2h[16:3],,,8,8,,6,,5h[16:3],,,3,3,,2,,
1-6[8:1],,,,8-3[8:1],,,,5-2[8:1],,,,4-7[8:1],,,,
8,,8h[8:3],,6,,5,,4-7[8:1],,4,,3,,2,,
1<6[8:1],,,5,5,,5h[8:3],,,,,,1,1,7,7,
3h[16:4],,,1,1,,4,,6h[16:4],,,8,8,,5,,
4,4,3,,2>5[8:1],,5-8[8:1],,6b,,,,,,5,,
5-1[8:1],,,,5/4-2[8:1],,,,4/5-1[8:1],,,,4b-8[8:1]/5b,,,,
1-5[8:1],,,,1/2-4[8:1],,,,8/2-6[8:1],,,,4b/2b,,,,
1h[8:2],,2,,8h[8:2],,6,,4-7[8:1],,,,2>5[8:1],,,,
5,6,7,,8,7,6,,2,3,4,5,7,6,5,4,
1-5[8:1],,,,1/8-6[8:1],,,,8/1-5[8:1],,,,8b-4[8:1]/1b,,,,
5-1[8:1],,,,5/6-8[8:1],,,,4/6-2[8:1],,,,86,,,,
1-5[4:2],,,,,,,,,,,,,,,,
3b/4b,,5b/7b,,,2b/4b,,,1b-4[8:1]/8b-5[8:1],,,,1b/8b,,,,
34,,2-5[8:1],,5-1[8:1],,8,8,,6,6,,7h[16:4],,,,
3,4,,6,5,,2,4,,7,5,6,5h[16:4],,,,
6,,7-4[8:1],,4-8[8:1],,1,1,,3,3,,2h[16:4],,,,
1-6[8:1],1,,4,4,,5-1[8:1],5,,8,8,,7,,6,,
34,,2-5[8:1],,5v8[8:1],,7,7,,6,6,,5h[16:4],,,,
2,1,,7,8,,3,1,,6,8,7,1h[16:4],,,,
4,,3,3,4,2,,6,6,5,7,,18,,81,,
2,2,3,4,4,,56,,5-8[8:1]/4-1[8:1],,,,4b/5b,,,,
78,,5/6-1[8:1],,1-5[8:1],,4,4,,2,2,,3h[16:4],,,,
2,3,,3,4,,4,5h[8:1],,6,5,4,5,,,,
12,,3-8[8:1]/4,,8-4[8:1],,5,5,,7,7,,6h[16:4],,,,
5<8[8:1],5,,4,4,,2>5[8:1],2,,1,1,,7,,6,,
78,,5/6-1[8:1],,1v4[8:1],,3,3,,2,2,,1h[16:4],,,,
2,1,,1,8,,8,7h[8:1],,6,7,8,7b,,,,
12,,5,5,3,,86,,2,2,4h[8:1],,8,8,6,6,
4b,,,7b,,,1b,,3-6[8:1],,,,8-4[16:3],,,,
4,,3,,2,,1,,8/6-3[8:2],,,,,,1,,
2,,,,3,,,,4/6<1[8:2],,,,,,,,
4,,3,,2,,1,,8/6-3[8:2],,,,1,,,,
2,,,,3,,,,4/6<1[8:2],,4,,4,,,,
2,,3,,4,,5,,8-3[8:2]/6,,,,,,5,,
4,,,,3,,,,8<5[8:2]/2,,,,,,,,
2,,3,,4,,5,,8-3[8:2]/6,,,,5,,,,
4,,,,3,,,,2>5[8:1],1,1,,8,,,,
{4}
7-4[8:4],,1,,8-3[8:4],,4,,
6-1[8:4],,2,,5-2[8:4],,4,,
{16}
3-8[8:1],,,,1,,,,4-7[8:1],,,,6,,,,
2-5[8:1],,,,4,,,,6h[16:3],,{24}3,4,5,{16}6b,,,,
34,,8,75,,1,24,,7,65,,2,3/4h[8:2],,,,
5,,,36,,,27,,1-4[8:1]/8-5[8:1],,,,1b/8b,,,,
4-2[8:1]/5,,1/2-5[8:1],,5-1[8:1],,8,8,,7,7h[8:1],,3,3,5,5,
3,4,2,4,3,3,4,3,,6,5,6,56,,,,
5-7[8:1]/4,,8/7-4[8:1],,4-8[8:1],,1,1,,2,2h[8:1],,6,6,4,4,
1-6[8:1],1,,3,3,,5-1[8:1],5,,7,7,,8,,28,,
4-2[8:1]/5,,1/2-5[8:1],,5v8[8:1],,7,7,,6,6h[8:1],,2,2,8,8,
2,1,2,1,3h[8:1],,4,3,,6,5h[8:1],,7,7,1,,
34,,7,7,5,,34,,6,6,2h[8:1],,8,8,5,5,
6,6,4,4,5,,3,3,5,5,4,,8,8,1,1,
2b-4[8:1]/7b,,3,,27,,6-8[8:1],5,,5,6,,2,,6-1[8:1],5,
,5,6,,3,,6,6-2[8:1],,,4,,3h[16:4],,,,
7-5[8:1],,6,,72,,3-1[8:1],4,,4,3,,7,,3-8[8:1],4,
,,4,,5h[8:1],,7,5<8[8:1],,,1,,1b,,,,
7/3-1[8:1],,2,,36,,7-5[8:1],8,,8,7,,3,,7-4[8:1],8,
,8,7,,2,,7,7-3[8:1],,,1,,2h[16:4],,,,
6-8[8:1],,7,,63,,2-4[8:1],1,,1,2,,6,,2-5[8:1],1,
,,1,,8h[8:1],,7,8,,,1/8h[24:3],,{24}2,3,4,8,7,6,
{16}
5h[8:1],,4,35,,6,75,,2,5,{24}3,4,3,{16}4,,25,,
1b>6[4:2]/6b,,,,,,,,
7,,,7,,,7,,{4}8<1[8:6],,,,7-3[16:1],,,,
