&title=JUMPIN’ OVER !
&artist=MORE MORE JUMP! × 初音ミク
&first=0.42
&des=aoihoshi
&lv_5=12+
&inote_5=(170)
{16}
E5,,,,C,,,,E1,,1x/8x,,1bx/8bx,,,,
7/3h[4:1],,,,4,,4h[4:1],,,,2qq5[4:3],,2,,,,
5,,,,6,,,,7,,,,8,,,,
1/7h[4:1],,,,5,,5h[4:1],,,,6qq1[4:3],,6,,,,
1,,,,2,,,,3,,,,4,,,,
3h[4:1]/5,,,,1,,2h[4:1]/8,,,,3V58[4:3],,3,,,,
8,,,,1,,,,2,,,,3,,,,
6h[4:1]/4,,,,8,,7h[4:1]/1,,,,6V41[4:3],,6,,,,
1,,,,8,,,,7,,,,6,,,,
3-5[8:1]/5,,,,6,,,,7-5[8:1],,7,,5,,,,
2-4[8:1]/4,,,,5,,,,6-4[8:1],,6,,4,,,,
2h[4:1]/5,,,,1,,1^6[8:1],,,,4^1[8:1],,,,5,,
5h[4:1],,,,8,,,,6,,5,,48,,,,
6-4[8:1]/4,,,,3,,,,2-4[8:1],,2,,4,,,,
7-5[8:1]/5,,,,4,,,,3-5[8:1],,3,,5,,,,
7-1[8:1],,,,4,,3-7[8:1],,,,5w1[8:1],,,,5,,
,,,,37,,,,4h[8:1]/6h[8:1],,,,1,,,,
6/2h[4:1],,,,4,,3h[4:1],,,,5,,4h[4:1],,,,
6,,5h[4:1],,,,7,,6,,5,,4,,3,,
2/8-4[8:1],,,,2,,3^8[8:1],,,,5-8[8:1],,,,1,,
,,,,28,,,,3,,4,,51,,,,
3/7h[4:1],,,,B5,,6h[4:1],,,,B4,,5h[4:1],,,,
B3,,4h[4:1],,,,2,,3,,4,,5,,6,,
1/7h[4:1],,,,4,,2v4[8:1]/6v4[8:1],,,,6^8[8:1]/2^8[8:1],,,,26,,
,,,,62,,,,5h[8:1]/3h[8:1],,,,8,,,,
46,,5,,46,,3,4,3,,6,5,6h[4:1],,,,
3,,4,,5,,6,5,6,5,6,,3,4,3,4,
3,,5,,46,,6,5,6,,3,4,3h[4:1],,,,
6,,5,,4,,3,4,3,4,3,,6,5,6,5,
7,,7,,8,,3,4,3,4,3,,2h[4:1]/5,,,,
1,,38,,47,,6,5,6,5,6,,2,4,2,4,
2,,2,,1,,6,5,6,5,6,,7h[4:1]/4,,,,
2-6[8:1],,,,1-5[8:1]*-5[8:1],,,,8w4b[8:1],,,,8b``Cf,,,,
6x/2x-5[8:1],,,,26,,8V64[16:3],,,,3,,2,,1h[4:1],,
,,3v5-8[8:3],,3,,,,1b,,,,1b,,,,
3-8[8:1],,4,,3,,6-1[8:1],,5,,6,,3,,4,,
5^2[8:1],,,,5^8[8:1]/7,,,,5/1w5[8:1],,,,1,,,,
3-8[8:1]/7-4[8:1],,,,37,,,,1>5[4:1],,,,5<1[4:1],,,,
1V35[4:1],,,,5V71[4:1],,,,1>6[4:1],,,,6z2[8:3],,,,
8h[2:1],,,,,,,,4,,,,35,,1b/7b,,
6x/2x-6[8:1],,,,1-5[8:1],,,,8w4[8:1],,,,8,,,,
6x/2x-5[8:1],,,,26,,8qq8[4:1],,,,3,,2,,1h[4:1],,
,,3v5V71[8:3],,3,,,,2b,,,,2b,,,,
3^6[8:1]/7,,,,37,,8-4[8:1],,,,48,,3,,2,,
1,,1^4[8:1],,,,1/6^1[8:1],,,,6/3^6[8:1],,,,
3/7h[4:1],,,,1pp5[2:1],,1,,,,6h[8:1],,,,6h[8:1],,,,
7qq4[2:1],,,,3h[8:1],,,,3h[8:1],,,,3h[8:1],,,,
2qq7[2:1],,,,5h[8:1],,,,5h[8:1],,,,5h[8:1],,,,
6-8-2-4[2:1],,,,5h[8:1],,,,5h[8:1],,,,5h[8:1],,,,
6pp1[2:1]/4qq1[2:1],,,,,,,,,,,,,,,,
E5,,,,C,,,,E1,,1x/8x,,2b/7b,,,,
15,,3,4,3,,25,,3,,4,,2/6>2q8[4:3],,,,
1h[8:1],,,,1h[8:1],,,,1h[8:1],,,,1h[8:1],,,,
28,,3,4,3,,25,,3,,4,,2-5v3-8[4:3]/5,,,,
6h[8:1],,,,6h[8:1],,,,6h[8:1],,,,6h[8:1],,,,
84,,6,5,6,,74,,6,,5,,7/3V57p1[4:3],,,,
8h[8:1],,,,8h[8:1],,,,8h[8:1],,,,8h[8:1],,,,
71,,6,5,6,,74,,6,,5,,7^4v6-1[4:3]/4,,,,
3h[8:1],,,,3h[8:1],,,,3h[8:1],,,,3h[8:1],,,,
15,,3,4,3,,25,,3,4,3,,1/7-4-6v1[4:3],,,,
3,,3,,3,,3,,3,,3,,3,,3,,
28,,3,4,3,,15,,3,4,3,,1-3-8v5[4:3],,,,
6,,6,,6,,6,,6,,6,,6,,6,,
84,,6,5,6,,74,,6,5,6,,8/2-5^4-1^7[4:3],,,,
6,,6,,6,,6,,6,,6,,6,,6,,
48,,3,4,2x/5x,,4x/7xh[8:3],,,,3,,8b,,1b>8[8:5]/5bh[8:57],,
,,,,,,,,,,,,,,,,
C,,,,E8,,E7,,,,E2,,E3,,,,
E1,,C,,,,E7,,E6,,E5,,E4,,E3,,
C,,,,E6,,E7,,,,E4,,E3,,,,
E5,,C,,,,E7,,E8,,E1,,E2,,E3,,
C,,,,E2,,E3,,,,E8,,E7,,,,
E1,,C,,,,E3,,E4,,E5,,E6,,E7,,
C,,,,E4,,E3,,,,E6,,E7,,,,
E5,,C,,,,A7,,A8,,A1,,A2,,,,
