&title=系ぎて
&artist=rintaro soma
&first=0
&des=albertoBradish
&wholebpm=88
&lv_2=7?
&inote_2=(88.8){4},,,,{32}1b,
1b,,,,,,,(78.8){4},,(88.8),
{32}2b,2b,{4},,,{16},,,{32}1b,
1b,,,,,,,,,,,,,,,(78.8)2b,2b,,,,,,,(68.8){4},
(88.8){32}1b,1b,,,1b,1b,{4},,,{16},{32}1b,
1x,,,,,,,1b,1x,,,,,,,1b,1x,,,,,,,,,,,,,,,2b,
2x,,,,,,,2b,2x,,,,,,,2b,2x,,,,,,,,,,,,,,,1b,
1x,,,,,,,1b,1x,,,,,,,1b,1x,,,,,,,,,,,,,,,2b,
2x,,,,,,,2b,2x,,,,,,,2b,2x,,,,,,,,,,,,,,,1b,
1x,,,1b,1x,,,1b,1x,,,,,,,1b,1x,,,1b,1x,,,1b,1x,,,,,,,2b,
2x,,,2b,2x,,,2b,2x,,,,,,,2b,2x,,,2b,2x,,,2b,2x,,,,,,,1b,
1x,,,1b,1x,,,1b,1x,,,1b,1x,,,1b,1x,,,,,,,1b,1x,,,,,,,1b,
1x,,,1b,1x,,,1b,1x,,,1b,1x,,,1b,1x,,,,,,,1b,1x,,,,,,,1b,
1x,{96},,2b,,,2x,,,,,1b,,,1x,,,,,,,,,,,,,,,,,{32}1b,1x,{96},,2b,,,2x,,,,,1b,,,1x,{4},{16},,{64},,{96},{32}1b,
1x,{96},,1b,,,1x,,,,,1b,,,1x,,,,,,,,,,,,,,,,,{32}1b,1x,{96},,1b,,,1x,,,,,1b,,,1x,{4},{16},,{64},,{96},{4}1x,
2x,3x,(78.8)4x,
{12}5x,{24}6x,(68.8),{12}7x,(58.8){48}8x,,,(48.8)1x,,,(38.8){16}2x,(88.8)3x,{24}4x,5x,6x,7x,8x,1x,{32}2x,3x,4x,5x,6x,7x,8x,1x,
{48}2x,3x,4x,5x,6x,7x,8x,1x,2x,3x,4x,5x,{64}6x,7x,8x,1x,2x,3x,4x,5x,6x,7x,8x,1x,2x,3x,4x,5x,{2}6x,
{64}1b,1x,{4},,,{16},,,{32},{64}1b,
1x,,,2b,2x,,,1b,1x,,,,,,,1b,1x,,,2b,2x,,,1b,1x,,,,,,,1b,1x,,,2b,2x,,,1b,1x,,,,,,,1b,1x,,,2b,2x,,,1b,1x,,,,,,,1b,
1x,,,2b,2x,,,1b,1x,,,2b,2x,,,1b,1x,,,2b,2x,,,1b,1x,,,,,,,1b,1x,,,2b,2x,,,1b,1x,,,2b,2x,,,1b,1x,,,2b,2x,,,1b,1x,,,,,,,1b,
1x,,,2b,2x,,,1b,1x,,,2b,2x,,,1b,1x,,,2b,2x,,,1b,1x,,,2b,2x,,,1b,1x,,,2b,2x,,,1b,1x,,,2b,2x,,,1b,1x,,,2b,2x,,,1b,1x,,,,,,,1b,
1x,,,1b,1x,,,1b,1x,,,1b,1x,,,1b,1x,,,1b,1x,,,1b,1x,,,1b,1x,,,1b,1x,,,1b,1x,,,1b,1x,,,1b,1x,,,1b,1x,,,1b,1x,,,1b,1x,,,,,,,1b,
1x,,,1b,1x,,,1b,1x,,,1b,1x,,,1b,1x,,,1b,1x,,,1b,1x,,,1b,1x,,,1b,1x,,,1b,1x,,,1b,1x,,,1b,1x,,,1b,1x,,,1b,1x,,,1b,1x,,,,,,,1b,
1x,,,1b,1x,,,1b,1x,,,1b,1x,,,1b,1x,,,1b,1x,,,1b,1x,,,,,,,1b,1x,,,1b,1x,,,1b,1x,,,1b,1x,,,1b,1x,,,1b,1x,,,1b,1x,,,,,,,1b,
1x,,,,,,,2b,2x,,,,,,,1b,1x,,,2b,2x,,,1b,1x,,,1b,1x,{4},,{32},{64}1b,
1x,,,,,,,,,,,,,,,1b,1x,,,,,,,,,,,,,,,1b,1x,,,,,,,,,,,,,,,1b,1x,,,,,,,,,,,,,,,1b,
1x,,,,,,,,,,,,,,,1b,1x,,,,,,,,,,,,,,,1b,1x,,,,,,,,,,,,,,,1b,1x,,,,,,,,,,,,,,,2b,
2x,,,,,,,,,,,,,,,2b,2x,,,,,,,,,,,,,,,2b,2x,,,,,,,,,,,,,,,2b,2x,,,,,,,,,,,,,,,1b,
1x,,,,,,,,,,,,,,,1b,1x,,,,,,,,,,,,,,,1b,1x,,,,,,,,,,,,,,,1b,1x,,,,,,,,,,,,,,,1b,
1x,,,,,,,2b,2x,,,,,,,1b,1x,,,,,,,2b,2x,,,,,,,1b,1x,,,,,,,2b,2x,,,,,,,1b,1x,,,,,,,2b,2x,,,,,,,1b,
1x,,,,,,,2b,2x,,,,,,,1b,1x,,,,,,,2b,2x,,,,,,,1b,1x,,,,,,,2b,2x,,,,,,,1b,1x,,,,,,,2b,2x,,,,,,,2b/1b,
2x/1x,{1},{4},,,{16},,,{32},{1}1b,
1b,
{64}1b,2b,{32}1b,{4},,,{16},,,{64}1b,
2b,1b,2b,{4},,,{16},,,(177.6){32}1b,
1x,,,2b,2x,,,,,,,1b,1x,,,2b,2x,,,,,,,1b,1x,,,2b,2x,,,,,,,1b,
1x,,,2b,2x,,,,,,,1b,1x,,,1b,1x,,,1b,1x,,,,,,,1b,
1x,,,2b,2x,,,,,,,1b,1x,,,2b,2x,,,,,,,1b,1x,,,2b,2x,,,,,,,1b,
1x,,,2b,2x,,,,,,,2b,2x,,,2b,2x,,,2b,2x,,,,,,,1b,
1x,,,,,,,2b,2x,,,,,,,1b,1x,,,,,,,2b,2x,,,,,,,1b,
1x,,,2b,2x,,,1b,1x,,,,,,,1b,1x,,,2b,2x,,,1b,1x,,,,,,,1b,
1x,,,2b,2x,,,1b,1x,,,2b,2x,,,1b,1x,,,1b,1x,,,1b,1x,,,1b,1x,,,1b,
1x,{4},,,{16},,,{1}1<8[4:15],
,,,{4},,{32}1b,
1x,2b,2x,1b,1x,,,,,,,,,,,1b,
1x,2b,2x,1b,1x,,,,,,,,,,,1b,1x,2b,2x,1b,1x,,,,,,,,,,,1b,
1x,2b,2x,1b,1x,,,,,,,,,,,1b,1x,2b,2x,1b,1x,,,,,,,,,,,1b,
1x,2b,2x,1b,1x,2b,2x,1b,1x,2b,2x,1b,1x,2b,2x,1b,1x,2b,2x,1b,1x,2b,2x,,,,,,,,,1b,
1x,1b,1x,1b,1x,1b,1x,,,,,,,,,1b,1x,1b,1x,1b,1x,1b,1x,,,,,,,,,1b,
1x,1b,1x,1b,1x,1b,1x,,,,,,,,,1b,1x,1b,1x,1b,1x,1b,1x,,,,,,,,,1b,
1x,1b,1x,1b,1x,1b,1x,,,,,,,,,1b,1x,1b,1x,1b,1x,1b,1x,,,,,,,,,1b,
1x,1b,1x,1b,1x,1b,1x,2b,2x,2b,2x,2b,2x,2b,2x,1b,1x,1b,1x,1b,1x,1b,1x,2b,2x,2b,2x,2b,2x,2b,2x,
2,3,4,5,6,7,8,1,{4}2,{32}1b,1x,1b,1x,1b,1x,1b,1x,{4}1,
{32}1b,1x,1b,1x,1b,1x,1b,1x,1,2,3,4,5,6,7,8,{2}1,
{32}1b,1,2b,2,1b,1,2b,2,,,,,,,,,1b,1,2b,2,1b,1,2b,2,,,,,,,,,1b,
1,2b,2,1b,1,2b,2,1b,1,2b,2,1b,1,2b,2,1b,1,2b,2,1b,1,2b,2,1b,1,2b,2,1b,1,2b,2,
1,2,3,4,5,6,7,8,1,2,3,4,5,6,7,8,{2}1,
{32}1b,1,2b,2,1b,1,2,3,4,5,6,7,8,1,2,3,{2}4,
{32}1b,1,2b,2,1b,1,2,3,4,5,6,7,8,1,2,3,{2}4,
{32}1b,1,2b,2,1b,1,2,3,4,5,6,7,8,1,2,3,{2}4,
{32},,,,,,,,1b,1b,1b,1b,1b,1b,1b,1b,1b,1b,1b,1b,1b,1b,1b,1b,1,2,3,4,5,6,7,8,
1,2,3,4,5,6,7,8,1,2,3,4,5,6,7,8,1,2,3,4,5,6,7,8,{4}1,
{32}1b,1,2b,2,1b,1,2b,2,1b,1,2b,2,1b,1,,,1b,1,2b,2,1b,1,2b,2,1b,1,2b,2,1b,1,2b,2,
1,2,3,4,5,6,7,8,1,2,3,4,5,6,7,8,1b,1,2b,2,1b,1,,,,,,,,,,,1b,
1,1b,1,1b,1,1b,1,,,,,,,,,1b,1,1b,1,1b,1,1b,1,,,,,,,,,1b,
1,1b,1,1b,1,1b,1,,,,,,,,,1b,1,1b,1,1b,1,1b,1,,,,,,,,,1b,
1,1b,1,1b,1,1b,1,2b,2,2b,2,2b,2,2b,2,1b,1,1b,1,1b,1,1b,1,2b,2,2b,2,2b,2,2b,2,
1b,1,1b,1,1b,1,1b,1,1b,1,1b,1,1b,1,1b,1,1b,2,3,4,{8}5,{32},,,,,,,,1b,
1b,1b,1b,1b,1b,1b,1b,1,2,3,4,5,6,7,8,1b,1b,1b,1b,1b,1b,1b,1b,1,2,3,4,5,6,7,8,
1b,1b,1b,1b,1b,1b,1b,1b,1,2,3,4,5,6,7,8,1b,1b,1b,1b,1b,1b,1b,1b,1,2,3,4,5,6,7,8,
1bh,1b,1bh,1b,1bh,1b,1bh,1b,1bh,1b,1bh,1b,1bh,1b,1bh,1b,1bh,1b,1bh,1b,1bh,1b,1bh,1b,1bh,2b,3b,4b,5b,6b,7b,8b,
(78.8){2}1b/6b<2v4[0.7614##2.8022],(58.8),
(68.8){24},{4},{96}1b,,,1b,,,,,,,,,,,,,,,,,(58.8){32}1b,1b,,,,,,,(48.8)1b,1b,{96},,,,,,,,,,,,,,,,,,(97.6){48}6b,
7b,8b,1b,2b,3b,
E
