&title= Cørrūptêd ⸸ GūardiaÑ
&artist=Salad Savior
&first=0
&lv_5=14+
&des_5=夢の中で守る
&inote_5=
(220){4},{1},{4},{128}8x-4[8:1],
1bxz5b[8:1],{4},{64},{32}B8/B2,C,B6/B4,,,,,{1}B6/B2/E4/E8/Ch[1:2],
,,,3h[1:2],
5<8[2:1],
1h[1:2],
{4}2>2[16:7],{16},,,,,,,,B4,B5,B6,B7,
8x,,,B7/B6,{8}1,E6/B5,{4}1h[8:1],{8}2,3,
{16}8,,,B2/B3,{8}8,E4/B4,{4}8h[8:1],{8}7,6,
{16}6v1[8:1],,,4,{8}6,3,{4}5h[8:1],4h[8:1],
{16}3v8[8:1],,,5,{8}3,5,{4}4h[8:1],5h[8:1],
{8}6/4,6,6,6,3/5,3,3,3,
7/4,7,7,7,6/2,2,2,2,
{16}7,1,7,1,7,1,7,1,{32}7,8,1,2,3,4,5,6,7,8,1,2,3,4,5,6,
{2}7V53[16:9],1s5b[8:1],
{8},,4/3,2,6/5,7,4/3,2,
{16}5,4,{8}6,{16}3,4,{8}2,{16}6,5,{8}6,{16}3,4,{8}3,
{16}6,5,6,5,{8}6-8p4[16:5],6,{4}6/3h[8:1],1h[8:1],
{8}1-5[8:1],2/5-3[8:1],{4}1,{8}7-5[12:1],8,{4}7-1[12:1],
{8}3b/7bV53[6:1],3b,7b>2[8:1],1h[16:1],7x<4[8:1],4h[16:1],7bx,2h[16:1],
1-3b[12:1],6h[16:1],1v4b[8:1],6h[16:1],1V35b[8:1],7b,1b/8b,8b,
{4}8b-6b[12:1]*<7-5b[12:1],8b>1-3b[12:1]*-2b[12:1],8b-5b[8:1]*V64b[8:1],8x-3[4:3]*z4[4:3],
{1},{4},{24}1/B1,
C,{6}B5,{24}6/4xh[8:1],,,7,,,{8}3/5h[8:1],2,
{16}2,1,{8}4,{16}7,8,{8}5,{16}3,4,{8}2,{16}6<1[8:1],5,{8}7,
6/3,3,4,4,{16}6,5,{8}7,{16}3,4,{8}2,
{4}6h[8:1]/3V15[16:9],7h[8:1],{8}8-6[16:1],8,{4}8,
{16}3,4,{8}2,{16}6,5,{8}7,{16}3,4,{8}2,{16}6,5,{8}7,
3/4,2,1/8,7,1,8,{24}2/E3,B3,{6}B4,
{16}7,8,7,8,{32}7,E7,B6,B5,{8}E5,{16}2,1,2,1,{32}2w6[2:1],3,4,5,6,7,8,1,
{4}2,,,A8/B8/A7/B7/A1/B1/B2/A2,
{16}2xh[16:3],,,4h[16:3],,,{8}3h[8:1],{4}E8/B8/B7,{8}2h[8:1],6h[8:1],
{16}5xh[16:3],,,7h[16:3],,,{8}6h[8:1],{4}8-4[8:1],{8}8/4,2,
{16}2h[16:3],,,4h[16:3],,,{8}3h[8:1],{4}E8/B7/B8,{8}7x,8,
{12}2,3,4,8,7,6,{4}5,{16}4,3,2,1,
8-3[8:1],,,6,{8}8,6,{4}7-5[16:1],{8}1,3,
{16}1-6[8:1],,,3,{8}1,3,{4}2-4[16:1],{8}6,7,
{2}8h[4:1],{16}2,1,2,1,3,8,3,8,
3,4,5,6,7,8,1,2,{4}3-7[8:1],3/7,
{16}8V64[16:3],,,4-7[8:1],,,{8}8-3[8:1],{2}8,
{16}1V35[16:3],,,5v2[8:1],,,{8}1<6[8:1],{2}1,
{16}8<4[16:3],,,4v7[8:1],,,{8}8v3>1[4:1],{2}8,
{16}7b/8b,,,4b/2b,,,{8}6bh[8:1]/5bh[16:1],{16},,1,7,1,7,1,7,
{4}8>3[8:1],{16}4,5,6,7,{4}8<4[16:3],{8}8,2,
{16}1b-5[0.2045##0.1364],,,7b-3[0.2045##0.1364],,,{8}1b,{16}1,8,7,6,5,4,3,2,
{12}1,7h,2,5h,3,8h,2,6x,6x,8,4x,4x,
1x,1x,1x,1,1,1,1x,1x,1x,1-5[4:1],1,1,
{2}1,{8}1bh[8:1],{16}4,3,4,3,{8}8bh[8:1],
{16}5,6,5,6,{8}2bh[16:1],{16}4,3,{8}7bh[16:1],{16}5,6,{4}4-8[8:1],
{8},,,,8bh[8:1],{16}5,6,5,6,{8}1bh[8:1],
{16}4,3,4,3,{8}7bh[16:1],{16}5,6,{8}2bh[16:1],{16}4,3,{4}5-1[8:1],
{32},,,,,,,,,,,,,,,,2bx,3x,{16}4x,1x,2x,{8}1x,{32}1bx,8x,{16}7x,
2x,1x,{8}2x,{32}2bx,3x,{16}4x,1x,1x,{32}8bx,7x,{16}6x,1x,1x,{4}1x-5[8:1],
{32},,,,,,,,,,,,,,,,1b,2,3,4,{16}7,7,{32},,,,2b,3,4,5,
{16}8,8,{32},,,,1x,2x,{16}3x,8,8,{32},,,,2,3,4,5,6,7,8,1,2,3,4,5,
6,7,8,1,2,3,4,5,6,7,8,1,2,3,4,5,6,7,8,1,{8}2/6h[1:2],,,,,,,,,,,,,,,,3h[1:2],
,,,,,,,,,,,,,,,8<4[16:11],
,,,,,,,1>5[4:3],
,,,,,,,8h[8:3],
,,4h[8:3],
,,7h[8:1],{2}5>8[4:3],
{8},,,,,7h[16:1],{16},4,,,{8}6,
5,,7h[16:1],4h[16:1],6,{16},5,,,{8}7/4-1[8:1],
,,,,2h[16:1],{16},5,,,{8}3,
4,,2h[16:1],5h[16:1],3,{16},4,,,{8}2/5-8[8:1],
,,,,7/4,{16},6/3,,,2/5,
,,1/4,,,{8}1/4,,2/5,{16},3/6,,,7/4,
,,5/8,,,{8}5/8,{16}6,5,{8}7,7,4,
4,{16}3,8,3,8,3,8,3,8,2,1,2,1,2,1,
2,1,{32}2,3,4,5,6,7,8,1,2,3,4,5,6,7,8,1,{8}2w6[4.0909##0.0682],{1},,,{4},,{8},2b,
,1V35-2[4:1],{16},5,,,{8}1,
{16}1,8,7,6,8,7,6,5,{8}8-4[8:1],{16},6,{8}8-3[8:1],
5,8,7,{16}8,7,6,5,{8}7/4>1[8:1],{16},6,{8}4,
8,6/8h[4:1],,6,7,{16}1,2,3,4,7,6,
5,4,2,3,4,5,6,7,8,1,{8}6/2v5[8:1],{16},8,{8}2-7[8:1],
6h[8:1],2,{16},,5,4,3,2,{8}1<6[8:1],{16},4,{8}1-5[8:1],
3h[8:1],1,{16},,2,8,2,8,{24}3,2,1,7,6,5,3,2,1,
7,6,5,{96}1,,,2,,,{32}3,4,5,6,7,8,1,2,3,4,5,6,7,8,{16}1,5,1,5,1,5,
1,5,{24}1,2,3,7,6,5,1,2,3,7,6,5,1>4[8:1],{48},,,,,,,{16}5,{8}1,
5,{16}1,8,7,6,5,4,3,2,{8}1/7<4[8:1],{16},8,{8}7,
2,{16}7,8,1,2,3,4,5,6,{8}7/2-5[8:1],{16},8,{8}2V86[8:1],
6,2,,5h[8:1],2h[8:1],{16}7,1,7,1,8,2,
8,2,{24}7,6,5,3,4,5,8,7,6,2,3,4,7<4[8:1],{48},,,,,,,{16}8,{8}7,
1,2V46[8:1],{16},1,{8}2,8,8,{16},2,{32}8b,7,6,5,
{8}1,1,{16},7,{32}1b,2,3,4,{8}7,{16}1,5,1,5,2,6,
2,6,3,7,3,7,3,7,3,7,3,4,5,6,7,8,
1,2,6/3,5,4,3,2,1,8,7,{8}6/2b-6b[4.0909##0.0682],{1},,,{4},,{8},2b,
{24},,,4,3,4,3,4,{6}2,
{24},,,5,6,5,6,5,7,,,,,,,4/2,{48},{16}2/4,4/2,2/4,,,,,5/7,
5/7,5/7,5/7,,,,,{8}Cf/B8/B1/E1/D1/A8/A1,{24},,,3b,,3,
,3,,2b,,2,,2,,1b,,1,,1,,8b,,8,,8,,7b,,7,
,7,{48},,{16}5x,4x,3x,2x,1x,8x,7x,6x,{8}5x/1-5[8:1],{16},7h[16:1],{8}1,
6h[16:1],{32}1x,2,3,4,5,6,7,8,{8}1/6,7,8-4[8:1],{16},2h[16:1],{8}8,
3h[16:1],{24}8x,7x,6x,5x,4x,3x,8,,,{8}1,7/2-5[8:1],{16},8,{8}2V86[8:1],
6,2,,5h[8:1],2h[8:1],{16}7,1,7,1,6,2,
6,2,5,3,5,3,5<8[8:1],3,5,3,{8}5,,3h[16:1],
2h[16:1],1>4[8:1],,1/8h[16:1],7h[16:1],5b/6b,{16},5b/3b,,,{8}1b/7b,
6b/C,{16},2b/C,,,{8}4b/8b,8xh[8:1]`4xh[8:1],,3xh[8:1]`7xh[8:1],
,2h`6h,2h`6h,1`5,1`5,{16}8,4,8,4,8,4,
8,4,8,4,8,4,{8}8b-4-8[4:1],,8b,,,1bh[8:1],
{16}4,3,4,3,{8}8bh[8:1],{16}5,6,5,6,{8}2bh[16:1],{16}4,3,
{8}7bh[16:1],{16}5,6,{4}4-8[8:1],{8},,,,8bh[8:1],
{16}5,6,5,6,{8}1bh[8:1],{16}4,3,4,3,{8}7bh[16:1],{16}5,6,
{8}2bh[16:1],{16}4,3,{4}5-1[8:1],{32},,,,,,,,,,,,,,,,2bx,
3x,{16}4x,1x,2x,{8}1x,{32}1bx,8x,{16}7x,2x,1x,{8}2x,{32}2bx,3x,{16}4x,1x,1x,
{32}8bx,7x,{16}6x,1x,1x,{4}1x-5[8:1],{32},,,,,,,,,,,,,,,,1b,
2,3,4,{16}7,7,{32},,,,2b,3,4,5,{16}8,8,{32},,,,1x,2x,{16}3x,8,8,
{32},,,,2,3,4,5,6,7,8,1,2,3,4,5,6,7,8,1,2,3,4,5,6,7,8,1,2,3,4,5,
6,7,8,1,{8}2/6,2/6,7/1,{32}1bx,2,3,4,{16}8,8,2,8,2,8,
{32}2bx,3,4,5,{8}1,{16}8,2,8,2,{8}8,{32}8bx,7,6,5,{16}2,8,2,8,
{24}3,7,3,7,,,{8}8/2,8/2,{32}2x/8x,3x/7x,{16}4x/6x,,,{8}1/7,{32}7x/1x,2x/6x,{16}3x/5x,
,,{8}8/2,8/2,{16}2,1,2,1,2,1,3,8,3,8,
3,8,3,8,{4}3,{32}1,2,3,4,{16}7,7,1,8,{32}1,2,3,4,
{8}7h[16:1],7h[16:1],{32}7,6,5,4,{8}1,1,{32}1,2,3,4,{8}7,7,
{32}7,6,5,4,3,2,1,8,7/3,4,5,6,7,8,1,2,3,4,5,6,7,8,1,2,3,4,5,6,7,8,1,2,
3,4,5,6,7,8,1,2,3x,7x,3x,7x,3x,7x,3x,7x,3x,7x,3x,7x,2x,8x,2x,8x,2x,8x,2x,8x,2x,8x,2x,8x,
2x,8x,2x,8xV64-7v2[32:197],2x-5-7V13b[8:49],3x/7x,4x/6x,5x,
E
