&title=ピンクレモネード
&artist=三月のパンタシア
&first=0.62
&des=taiyehu_
&lv_5=13+
&inote_5=(191)
{1},
{4},,,,
{8}E3,E6,E4,E7,,,,E1/B1/A1,
{8},,,,B3/E3/B7/E7,,,,
{8}E7,E4,E6,E3,,,,E1/B8/A8,
{8},,,,B5/E5/Ch[2:1],,,,
{4}8x<5[2:1],4,3,2,1>4[2:1],5,6,7,
{8}8,5,6,3,4h[8:1],2h[8:1],7h[8:1],5h[8:1],
{8}6,1,8,2xqq3[8:3],,,,,
{8}6,,,6h[8:5],,,,,
{8}E1/B1,,,E3/B3,,,,,
{8}24,,,4/2h[8:5],,,,,
{8}E5/B5,,,E7/B7,,,1,,
{8}1/8h[2:1],,,,2h[2:1],,,,
{8}7h[2:1],,5,,3h[4:1],,5,,
{4}35,56,24,18,
{4}7>2[8:1],4qq5[16:5]b,5bx,,
{8}6,6h[8:3],4,,2,2,4-6[8:1],,
{8}2h[4:1],,8,,7-5[8:1],,3,,
{8}3,3h[8:3],5,,7,7,5-3[8:1],,
{8}7h[4:1],,2h[4:1],,3h[4:1],,4h[4:1],,
{8}6,6h[8:3],3,,2,2,4-6[8:1],,
{8}2h[4:1],,7,,6-4[8:1],,2-5[8:1],,
{8}8<5[8:1],,3,,1>4[8:1],,6,,
{16}7,,7,,1b,,,,3,,6,5,6,5,6,,
{8}2/4,,8x/2x-5[8:1],,7x-4[8:1],,,3,
{8}2,5,4,7,5-2[8:1]b,,8h[4:1],,
{8}1bx,,1x/8x,,2x-5[8:1]/7x-4[8:1],,,,
{4}7,46,
{12}2,4,3,6,5,7,
{8}48,4/8h[8:2],,5,6h[8:2]/4,,3,
{8},24,2h[8:2]/4,,,7,,18,,
{8}2h[4:1],,4h[4:1],,6h[4:1],,8,,
{8}21,3,57,6,34,2,18,7,
{8}4/6h[4:1],,3,3,26,26,17,17,
{4}1x<5[16:4]/7x>3[16:4],,,
{16}6x/5x,4x,3x,2x,
{16}7h[4:1]/1bx,,,,5,,3,,4/2-5[8:1],,,,82,,,,
{16}7/E6/B6,,,,1/B3/A3/E4,,,,7-4[8:1]/8-4[8:1],,,,78,,,,
{16}2V48[4:1],,,,26,,,,7V15[4:1],,,,73,,,,
{12}2x,4,3,6,5,7,1x,2,3,5,6,7,
{16}2h[4:1]/8b,,,,8-6[8:1],,3,,8/5-1[8:1],,,,35,,,,
{16}2/E5/B4,,,,8/B6/A6/E6,,,,2-5[8:1]/1-5[8:1],,,,21,,,,
{16}3/7-3[8:1],,,,7/2,,,,1q5[8:1],,,,1/7-3[8:1]*-4[8:1],,,,
{16}7,,,,2b/6b,,,,1/8,,6,5,6,,3,4,
{16}2qq3[16:5],,,,27,,,,6qq7[16:5],,,,36,,,,
{16}2,,,,5/7h[4:1],,,,
{12}4,5,2,6,4,7,
{16}1x>4[8:1],,,,1/8<5[8:1],,,,18,,,,4b/2bqq5[8:3],,,,
{16},,,,6,,,,8,,3,4,3,,6,5,
{16}7-5[8:1],,,,47,,,,4-8[8:1]/3,,,,24,,,,
{16}7-5[8:1],,,,47,,,,4-8[8:1]/3,,,,24,,,,
{16}1>4[8:1],,,,1/5-2[8:1],,,,57,,,,17,,7,,
{16}35,,3,,8h[4:1]/2,,,,
{24}E3,E4,E5,E6,E7,E8,
{16}B1/E2/E1f,,,,
{16}3bx/7bx,,,,34,,6,,1>4[8:1]/7,,,,18,,,,
{16}7<4[8:1],,,,1q5[8:1],,,,6,,,,8/4x,,,,
{16}7V51[4:1],,,,37,,,,2V84[4:1],,,,26,,,,
{12}7x,5,6,3,4,2,8x,7,6,4,3,2,
{16}7h[4:1]/1b,,,,1,,3,,4-2[8:1]/5-1[8:1],,,,54,,,,
{16}8x<5[8:1],,,,1>4[8:1],,,,6,,,,37,,,,
{16}6/2-6[8:1],,,,2/7,,,,8p4[8:1],,,,8/2-6[8:1]*-5[8:1],,,,
{16}2,,,,7b/3b,,,,8/1,,3,4,3,,6,5,
{16}7pp6[16:5],,,,72,,,,3pp2[16:5],,,,63,,,,
{16}7,,,,4/2h[4:1],,,,
{12}6,5,7,4,5,2,
{16}8<5[8:1],,,,1>4[8:1]/8,,,,1/6xpp3[8:3],,,,E7/B6/B7f/5bx>1[6:1]b,,,,
{16},,,,8x,,,,57,,3,4,3,4,3,4,
{16}2-4[8:1],,,,5-1[8:1]/2,,,,8-6[8:1]*-4[8:1]/5,,,,8,,,,
{16}2-4[8:1],,,,5-1[8:1]/2,,,,8-6[8:1]*-4[8:1]/5,,,,8,,,,
{16}3>8[8:1],,,,5<8[8:1],,,,4-1[8:1]*-7[8:1],,,,4,,,,
{16}2,3,4,5,8,7,6,5,3,2,1,8,5,6,7,8,
{16}2/1s5[4:1],,,,3,,2,,,,,,1s5[4:1]/4,,,,
{16}6,,7h[8:3],,,,,,5,,3,,24,,6,,
{16}7<5[8:1],,4,,7,,1>3[8:1],,4,,1,,6,,4h[8:1],,
{16}7h[8:1],,8h[8:1],,5h[8:1],,4h[32:4],,2x<5[16:4],,,,E3/B3/B2f,,,,
{24}4bxqq7[16:5]b,3x,2x,
{16}1xh[8:3],,,,,,,,,2h[16:3],,,8h[8:1],,
{16}6V42[16:3],,,7,,,8,,1-5[8:1]*-6[8:1],,,,1b,,,,
{16}3,,2/4-8[8:1],,35,,4/6h[4:1],,,,,,
{16}21,,3/4-8[8:1]b,,56,,7h[4:1],,,,,,1b/8b,,,,2,8,2,8,
{8}2x<6[64:15],,5x>1[64:15],,1x<5[64:15]b,,4x>1[16:3]b,,
{8}7xqq1[16:5],,3x,,2xpp2[16:5]b,,6x,,
{8}7x>3[64:15],,4x<8[64:15],,8x>4[64:15]b,,5x<1[64:15]b,,
{16}2x,,,,5b,,,,2,4,2,4,3,5,3,5,
{16}4qq5[16:4]b,,,,4/7,,,,8qq1[4:1]b,,,,3/8,,,,
{16}2x>5[8:1]b,,,,6x<1[8:1]b/2x,,,,6x/4x-1[8:1]b*-7[8:1]b,,,,4bx,,,,
{32}2bx,E3,B3,B4,E5,,,,6bx,E7,B7,B8,E1,,,,4bx,E4,B3,B2,E2,,,,8bx,E8,B7,B6,E6,,,,
{16}A3f/E3/B3,,,,46,,46,,37,,37,,28,,28,,
{16}1b/7b,,,,24,,,,2h[4:1]/4,,,,5,,4/6h[4:1],,
{16},,3h[4:1],,,,8>6[16:4]*qq6[16:4],,8,,,,,,,,
{16}7bx,,,,78,,,,3h[4:1]/4,,,,6,,5/7h[4:1],,
{16},,3,,,,8<4[16:3]/4q8[16:3],,48,,,,,,,,
{16}1bx,,,,2-5[8:1],,,,1-6[8:1],,,,3,,,,
{16}4>1[8:1],,,,4<7[8:1],,,,4-8[8:1]b,,,,4,,,,
{16}7<3[4:1],,,,1,,,,2q7[4:1],,,,8,,,,
{16}1<6[6:1],,,,3,,,,E3,E4,E5,E6,E7,,,,
{16}8b/2b,,,,2q5[16:7],,,,A7/E7/E8,,,,,,6,,
{16},,6p4[16:7],,,,,,A2/E3/E2,,,,,,,,
{16}3,,,,4q5[16:7],,,,A8/E8/D8,,,,,,,,
{16}8<5[8:1],,,,8>3[8:1],,,,8-4[8:1]b,,,,8,,,,
{4}2-4[8:1],28,6-8[8:1],56,
{4}1-3[8:1],51,8-4[8:1],28,
{4}1>4[8:1],16,5-1[8:1],57,
{4}8<5[8:1],83,24,71,
{8}28,3,3,45,6,6,17,8,
{12}E2/B2,E1,D3,E6/B6,E5,D7,Ch[12:6],,,,,,
{16}8b<1[2:3],,,,,,,,,,,,,,
{16}E5,C,E1,,,,,,,,,,,,,,,,
{1}1-5[8:19]b,,,
{8}2b/4b,2b/4b,,,5b/7b,5b/7b,,,
{16}6bh[4:1]/B1f/E2/E1,,,,5,,3,,4-8[8:1]b/2-5[8:1]b,,,,42,,,,
{16}7x<4[8:1]/3x,,,,7/2q6[8:1],,,,2/8w4[8:1],,,,8b,,,,
{16}A6/A5/E6f/B6/B5/D6/2x,,,,7x/A3/A2/E3f/B3/B2/D3,,,,46,,37,,2bh[4:1]/8,,,,
{12}4x,2,6,5,7,3,8x,7,6,54,3,2,
{8}1/7-5[8:1],7,3-8[8:1],3,4-7[8:1],4,2-5[8:1],2,
{16}8w4[8:1],,,,8,,,,
{12}3x,4,2,5,4,7,
{4}1bx/8bx,2b-5[8:1]/6b-1[8:1],6b/2b<5pp4[16:9],E4f/A3/A4/B4/B3,
{16},,,,2x,,,,3x,5,3,5,2,6,2,6,
{4}1>4[8:1],1/5-2[8:1],5/8<5[8:1],81,
{4}1>4[8:1],1/5-2[8:1],5/8<5[8:1],81,
{8}24,3,46,7,18,1,26,6,
{16}35,,4,6,4,6,4,6,{24}E3,E2,E1,E8,E7,E6,
{16}B4/E4/E5f,,,,
{16}7b/1b,,,,65,,3,,8-4[8:1]b/2-5[8:1]b,,,,82,,,,
{16}7<4[8:1],,,,7/2q6[8:1],,,,2/8w4[8:1],,,,8,,,,
{16}6/2<8[8:1],,,,42,,6,,7-5[8:1]/5x-1[8:1],,,,7x/5x,,,,
{12}2x,4,3,6,5,7,1x,2,3,45,6,7,
{16}2b/8b,,,,2/8-5[8:1],,3,,4-1[8:1],,4,,7,,7,,
{16}2>5[8:1],,,,2/7p3[8:1],,,,7/1w5[8:1],,,,1b,,,,
{16}A3/A4/E4f/B3/B4/D4/8x,,,,2x/A6/A7/E7f/B6/B7/D7,,,,53,,62,,7bh[4:1]/1,,,,
{12}5x,7,3,4,2,6,1x,2,3,45,6,7,
{8}8/2-4[8:1],2,6-1[8:1],6,5-2[8:1],5,7-4[8:1],7,
{16}1w5[8:1],,,,1,,,,
{12}3,4,2,5,4,7,
{16}1bx/8bx,,,,7b<4[8:1]/4b>1[8:1],,,,7b/4b-7V15[8:3],,,,E2f/A1/A2/B1/B2,,,,
{16},,,,2x,,,,8,4,8,4,7,3,7,3,
{8}6xh[8:1],5xh[8:1],4xh[8:1],3xh[8:1],6xh[8:1],5xh[8:1],4xh[8:1],3xh[8:1],
{8}7xh[8:1],5xh[8:1],4xh[8:1],2xh[8:1],7xh[8:1],5xh[8:1],4xh[8:1],2xh[8:1],
{4}8h[4:1],,5h[4:1]/7h[4:1],,
{8}6/4h[4:1],,5v6-8[4:1],,3,,2,,
{1}3bqq4[16:23]b/7bqq8[16:23],,
{16}2x/4x,,2,,56,,7,,28,,2,,46,,6,,
{16}37,,37,,28,,28,,1,8,1,8,1,8,1,8,
{16}1V35[6:1],,,,6,,,,7-4[8:1],,,,17,,,,
{16}2>5[8:1],,,,8<5[8:1],,,,1-5[8:1]b,,,,7,,,,
{16}8h[8:1],,4h[8:1],,6h[8:1],,2h[8:1],,4,,35,,46,,5/7,,
{12}4,6,3,4,2,5,4,7,1x>8[12:49],,,,
{8},8b<1[8:29],
&inote_6=(191)
{1},
{4},,,,
{8}E3,E6,E4,E7,,,,E1/B1/A1,
{8},,,,B3/E3/B7/E7,,,,
{8}E7,E4,E6,E3,,,,E1/B8/A8,
{8},,,,B5/E5/Ch[2:1],,,,
{4}8x<5[2:1],4,3,2,1>4[2:1],5,6,7,
{8}8,8,3,3,6,6,2,2,
{8}8,6,4,2qq3[8:3],,,,,
{8}6,,,6h[8:5],,,,,
{8}E1/B1,,,E3/B3,,,,,
{8}24,,,4/2h[8:5],,,,,
{8}E5/B5,,,E7/B7,,,1,,
{8}1/8h[2:1],,,,4h[2:1],,,,
{8}6h[2:1],,5,,3h[4:1],,4,,
{4}35,56,24,18,
{4}7>2[8:1],4qq5[16:5],5b,,
{8}6,6h[8:3],4,,2,2,4-6[8:1],,
{8}2,,4h[4:1],,7-5[8:1],,3,,
{8}3,3h[8:3],5,,7,7,5-3[8:1],,
{8}7,,5h[4:1],,2-4[8:1],,6,,
{8}7,7h[8:3],1,,3,3,1-7[8:1],,
{8}3-1[8:1],,6,,7-5[8:1],,1,,
{8}3-8[8:1],,36,,7-4[8:1],,37,,
{16}2,,2,,8b,,,,1,,6,5,6,5,6,,
{8}2b/4b,,8/2-5[8:1],,7-4[8:1],,,3,
{8}2,5,4,7,6>3[8:1],,8h[4:1],,
{8}2b,,18,,2-5[8:1]/7-4[8:1],,,,
{4}7,46,
{12}2,4,3,6,5,7,
{8}48,4/8h[8:2],,5,6h[8:2]/4,,2,
{8},13,,8/2-5[8:1],,7-4[8:1],,1h[4:1],,
{8}3h[4:1],,5h[4:1],,7h[4:1],,1,,
{8}24,3,57,6,34,2,18,7,
{8}4/6h[4:1],,3,3,26,26,17,17,
{4}2xh[2:1]/8xh[2:1],,,
{16}1,2,3,4,
{16}6h[4:1]/5b,,,,5,,3,,4-8[8:1]/2-5[8:1],,,,42,,,,
{16}7/E6/B6,,,,1/B3/A3/E4,,,,7-4[8:1]/8-4[8:1],,,,78,,,,
{16}3>8[8:1],,,,36,,,,7<4[8:1],,,,27,,,,
{12}2x,4,3,6,5,7,1x,2,3,5,6,7,
{16}2h[4:1]/8b,,,,8-6[8:1],,3,,8/5-1[8:1],,,,35,,,,
{16}2/E5/B4,,,,8/B6/A6/E6,,,,2-5[8:1]/1-5[8:1],,,,21,,,,
{16}3/7<4[8:1],,,,7/2,,,,1q5[8:1],,5,,7-3[8:1]*-4[8:1],,,,
{16}7,,,,2b/6b,,,,1/8,,6,5,6,,3,4,
{16}2qq3[16:5],,,,27,,,,6qq7[16:5],,,,36,,,,
{16}2,,,,5/7h[4:1],,,,
{12}4,5,2,6,4,7,
{16}1x>4[8:1],,,,1/8<5[8:1],,,,18,,,,4b/2bqq5[8:3],,,,
{16},,,,6,,,,8,,3,4,3,,6,5,
{16}7-5[8:1],,,,47,,,,4-8[8:1]/3,,,,24,,,,
{16}7-5[8:1],,,,47,,,,4-8[8:1]/3,,,,24,,,,
{16}1>4[8:1],,,,1/5-2[8:1],,,,57,,,,17,,7,,
{16}35,,3,,8b/1b,,,,
{24}E3,E4,E5,E6,E7,E8,
{16}B1/E2/E1f,,,,
{16}2b/8b,,,,34,,6,,1-5[8:1]/7-4[8:1],,,,17,,,,
{16}2>5[8:1],,,,2/7p3[8:1],,,,7/1w5[8:1],,,,1,,,,
{16}37,,,,8-4[8:1],,1,,2-5[8:1],,,,2x/6x,,,,
{12}7x,5,6,3,4,2,8x,7,6,4,3,2,
{16}7h[4:1]/1b,,,,1-6[8:1],,3,,4-8[8:1],,,,54,,,,
{16}7<4[8:1],,,,7/2q6[8:1],,,,2/8w4[8:1],,,,8,,,,
{16}6/2>5[8:1],,,,2/7,,,,8p4[8:1],,4,,2-6[8:1]*-5[8:1],,,,
{16}2,,,,7b/3b,,,,8/1,,3,4,3,,6,5,
{16}7pp6[16:5],,,,72,,,,3pp2[16:5],,,,63,,,,
{16}7,,,,4/2h[4:1],,,,
{12}6,5,7,4,5,2,
{16}8<5[8:1],,,,1>4[8:1]/8,,,,1/6xpp3[8:3],,,,E6f/5bx>1[6:1]b,,,,
{16},,,,8x,,,,57,,3,4,3,4,3,4,
{16}2-4[8:1],,,,5-1[8:1]/2,,,,8-6[8:1]*-4[8:1]/5,,,,8,,,,
{16}2-4[8:1],,,,5-1[8:1]/2,,,,8-6[8:1]*-4[8:1]/5,,,,8,,,,
{16}3>8[8:1],,,,5<8[8:1],,,,4-1[8:1]*-7[8:1],,,,4,,,,
{16}2,3,4,5,8,7,6,5,3,2,1,8,5,6,7,8,
{16}2/1s5[4:1],,,,3,,2,,,,,,1s5[4:1]/4,,,,
{16}6,,7h[8:3],,,,,,5,,3,,24,,6,,
{16}7<5[8:1],,4,,7,,1>3[8:1],,4,,1,,6,,4h[8:1],,
{16}7h[8:1],,8h[8:1],,5h[8:1],,4h[32:4],,2x<5[16:4],,,,B4f,,,,
{24}4bxqq7[16:5]b,3x,2x,
{16}1xh[8:3],,,,,,,,,2h[16:3],,,8h[8:1],,
{16}6V42[16:3],,,7,,,8,,1-5[8:1]*-6[8:1],,,,1b,,,,
{16}3,,2/4-8[8:1],,35,,4/6h[4:1],,,,,,
{16}21,,3/4-8[8:1]b,,56,,7h[4:1],,,,,,1b/8b,,,,2,8,2,8,
{8}2x<6[64:15],,5x>1[64:15],,1x<5[64:15]b,,4x>1[16:3]b,,
{8}7xqq1[16:5],,3x,,2xpp2[16:5]b,,6x,,
{8}7x>3[64:15],,4x<8[64:15],,8x>4[64:15]b,,5x<1[64:15]b,,
{16}2x,,,,5b,,,,2,4,2,4,3,5,3,5,
{16}4qq5[16:4]b,,,,4/7,,,,8qq1[4:1]b,,,,3/8,,,,
{16}2>5[8:1]b,,,,7p3[8:1]b/2,,,,7/1w5[8:1]b,,,,1,,,,
{16}3b>8[8:1],,4,,5,,6b>3[8:1],,7,,8,,1b,,2,,
{16}E7/B6/Cf/B5/E5/B4/B3/E3,,,,46,,46,,37,,37,,28,,28,,
{16}1b/7b,,,,43,,,,5h[4:1]/4,,,,3,,4/2h[4:1],,
{16},,5-8[8:1],,,,3,,4h[4:1],,,,7h[4:1],,,,
{16}1b,,,,56,,,,3/4,,,,6,,5/7h[4:1],,
{16},,4-1[8:1],,,,6,,5h[4:1],,,,2h[4:1],,,,
{16}8b,,,,2-5[8:1],,,,1-6[8:1],,,,3,,,,
{16}4>1[8:1],,,,4<7[8:1],,,,4-8[8:1],,,,4,,,,
{16}7<3[4:1],,,,1,,,,2q7[4:1],,,,8,,,,
{16}1<6[6:1],,,,3,,,,E3,E4,E5,E6,E7,,,,
{16}8b/2b,,,,2q5[16:7],,,,A7/E7/E8,,,,,,6,,
{16},,6p4[16:7],,,,,,A2/E3/E2,,,,,,,,
{16}3,,,,6/4q5[16:7],,,,A8/E8/D8,,,,,,,,
{16}8<5[8:1],,,,8>3[8:1],,,,8-4[8:1],,,,8,,,,
{4}2-4[8:1],25,5-1[8:1],56,
{4}7-5[8:1],74,4-8[8:1],43,
{4}1>4[8:1],16,5-1[8:1],57,
{4}8<5[8:1],83,24,71,
{8}28,3,3,45,6,6,17,8,
{12}E2/B2,E1,D3,E6/B6,E5,D7,Ch[12:6],,,,,,
{16}8b<1[2:3],,,,,,,,,,,,,,
{16}E5,C,E1,,,,,,,,,,,,,,,,
{1}1-5[2:5],,,
{8}2b/4b,2b/4b,,,5b/7b,5b/7b,,,
{16}6bh[4:1]/B1f/E2/E1,,,,5,,3,,4-8[8:1]b/2-5[8:1]b,,,,42,,,,
{16}7x<4[8:1]/3x,,,,7/1-5[8:1],,,,6<1[8:1]/1>4[8:1],,,,1b/6b,,,,
{16}A6/A5/E6f/B6/B5/D6,,,,A3/A2/E3f/B3/B2/D3,,,,46,,37,,2bh[4:1]/8,,,,
{12}4x,2,6,5,7,3,8x,7,6,54,3,2,
{8}1/7-5[8:1],7,3-8[8:1],3,4-7[8:1],4,2-5[8:1],2,
{16}8w4[8:1],,,,8,,,,
{12}3x,4,2,5,4,7,
{4}1bx>4[8:1]b,1b/8b<5[8:1]b,8b/1b>4[8:1]b,1bxpp6[8:3]b/A7/E8/B7f,
{16},,,,4x,,,,3,5,3,5,2,6,2,6,
{4}1>4[8:1],1/5-2[8:1],5/8<5[8:1],81,
{4}1>4[8:1],1/5-2[8:1],5/8<5[8:1],81,
{8}24,3,46,7,18,1,26,6,
{16}35,,4,6,4,6,4,6,{24}E3,E2,E1,E8,E7,E6,
{16}B4/E4/E5f,,,,
{16}2b/8b,,,,34,,6,,1-5[8:1]/7-4[8:1],,,,17,,,,
{16}2>5[8:1],,,,2/7p3[8:1],,,,7/1w5[8:1],,,,1,,,,
{16}37,,,,8-4[8:1],,1,,2-5[8:1],,,,2x/6x,,,,
{12}7x,5,6,3,4,2,8x,7,6,4,3,2,
{16}7h[4:1]/1b,,,,1-6[8:1],,3,,4-8[8:1],,,,54,,,,
{16}7<4[8:1],,,,7/2q6[8:1],,,,2/8w4[8:1],,,,8,,,,
{16}6/2>5[8:1],,,,2/7,,,,8p4[8:1],,4,,2-6[8:1]*-5[8:1],,,,
{16}2,,,,7b/3b,,,,8/1,,3,4,3,,6,5,
{16}7pp6[16:5],,,,72,,,,3pp2[16:5],,,,63,,,,
{16}7,,,,4/2h[4:1],,,,
{12}6,5,7,4,5,2,
{16}8<5[8:1],,,,1>4[8:1]/8,,,,1/6xpp3[8:3],,,,E6f/5bx>1[6:1]b,,,,
