&title=TSLove
&artist=O2i3
&first=0.02
&des=AClrt_
&lv_5=13+
&inote_5=(185)
{8}
,,,,4,4,4,4,4,4,4,4,3,3,3,3,3,3,3,3,5,5,5,5,5,5,5,5,6,6,6,6,
4,4,45,3,2,1,8,7,6,5,4,5,6,7,8,1,2,3,4,5,
4,7,4,5,2,5,4,7,4,5,3,6,2,3,7,6,
{16}1b,,2,,34,,5,5,4-8[8:1],,7-4[8:1],,4,,7,,1,,51,,7,,73,,4,,45,,
6,,73,,
8,,7,,65,,4,4,5-1[8:1],,2-5[8:1],,5,,2,,8,,48,,2,,26,,5,,54,,
3,,26,,15,,15,,48,,48,,37,,37,,26,,26,,15,,15,,
26,,26,,37,,37,,48,,48,,2,6,2,6,4,5,4,5,3,7,3,7,1,6,2,7,
3q5[8:5]*q6[8:5],,,,,,,,,,,,,,,,
3b/7b,,8,,1x/8x,,2,2,4xv1[8:1],,5,,4x/6x^4[8:1],,7,7,2x^8[8:1],,3,,
6x,,7,,1x/7p4[4:1],,,,1,,,,
2x^4[8:1],,1,,2x,,1,8,7xh[4:1]/5x,,1,,3h[4:1],,1,,4,,2,2,5,,6,,
4v1[8:1]/7-1[8:1],,5,,,,,,
6b/2b,,1,,8x/1x,,7,7,5xv8[8:1],,4,,5x/3x^5[8:1],,2,2,7x^1[8:1],,6,,
3x,,2,,8x/2q5[4:1],,,,8,,,,
7x^5[8:1],,8,,7x,,8,1,2xh[4:1]/4x,,8,,6h[4:1],,8,,5v8[8:1],,7,,
5/6^3[4:2],,,,A7,,A8,,A1,,A2,,
2xbh[4:1],,,,4xv1[8:1],,6,6,4x^7[8:1],,5,,2x/4x,,
3,3,8x^7-5[8:1],,1,1,8x,,2,,3x/4hx[4:1],,,,1,,,,
28,,3,,45,,6,5,7-4[8:1],,7,,2-5[8:1],,2,,6,,7,,48,,37,,18,,26,,18,,,,
7xbh[4:1],,,,5xv8[8:1],,3,3,5x^2[8:1],,4,,7x/5x,,
6,6,1x^2-4[8:1],,8,8,1x,,7,,6x/5hx[4:1],,,,8,,,,
71,,6,,54,,3,4,2-5[8:1],,2,,7-4[8:1],,7,,3,,2,,5/1-5[8:1],,62,,
5w1[8:1],,,,,,,,3/7<1[4:10],,,,
{4}E1,E2,E3,E4,E5,E6,E7,E8,E1,A8,A7,A6,A5,
{8}A4,E3,C/D5,E7,,A5,A1,A6,A2,A7,A3,A8,A4,E8,E4,E7,E3,E6,E2,E5,
E1/Chf[1:2],,1,2,,2,3<1[4:4],,
,,,,,,,,,,
3,4,6,5,3,4,6,5,2,4,7,5,1,3,8,6,2,4,7,5,3,1,6,8,4,B8/E8,5,B1/E2,
3h[4:1],,6,7,37,2,26,5,45,36,27,18,27,36,45,36,26,15,
{16}7,8,7,8,5,4,5,4,1,2,8,3,5V74-8^2[4:3],4,6,3,,,,,,,,,,,,,B3,,,,
2b/6b,,5,,4x/5x,,3,3,1xv4[8:1],,8,,1x/7x^1[8:1],,6,6,3x^5[8:1],,2,,
7x,,6,,4x-1[8:1]/6x-1[8:1],,,,,,,,
3x^1[8:1],,4,,3x,,5,5,1x-5[8:1],,2,,1/8-4[8:1],,7,,18,,3,3,5x-1[8:1],,2x-5[8:1],,
5-2[8:1]b,,2,,,,,,
7b/3b,,4,,5x/4x,,6,6,8xv5[8:1],,1,,8x/2x^8[8:1],,3,3,6x^4[8:1],,7,,
2x,,3,,5x-8[8:1]/3v8[8:1],,,,,,,,
1,,34,,8,,56,,1-5[8:1],,8-6[8:1],,1-3[8:1],,8-4[8:1],,1,,8,,
2^7[4:2],,,,A3,,A4,,A5,,A6,,
6xbh[4:1],,,,8xv5[8:1],,2,2,8x^3[8:1],,1,,6x/8x,,
7,7,4x^3-1[8:1],,5,5,4x,,6,,7x/8hx[4:1],,,,5,,,,
64,,7,,81,,2,1,3-8[8:1],,3,,6-1[8:1],,6,,2,,3,,84,,7/3-1[8:1],,4-8[8:1]b/5,,36,,,,,,
3xbh[4:1],,,,1xv4[8:1],,7,7,1x^6[8:1],,8,,3x/1x,,
2,2,5x^6-8[8:1],,4,4,5x,,3,,2x/1hx[4:1],,,,4,,,,
35,,2,,18,,7,8,6-1[8:1],,6,,3-8[8:1],,3,,7,,6,,1/5-1[8:1],,26,,
1w5[8:1],,,,,,,,3/7,,
2,4,3h[8:1],,5,4,6,3,7,1,8,2,6,5,7xb^1[8:1],,4,4,7^5[8:1],,3,3,7,,2,2,
5xh[4:1],,,,1,,2,7,3,,6,5,43,,2,1,2,E3,B3,B4,
E5/7x-5[8:1],,8,,2x-4[8:1]/7x,,1,,2x/7x,,8^5[4:1],,
Ch[8:1],,,,,,1,,24,,8,,57,6,5,,24,35,46,,4x/6x,,7,,28,,3,,45,,4h[4:1]/5,,
,,Ch[8:1],,3,8,,2,7,2,7,,6,1,7,2,7,2,3,4,51,2,3,4,52,3,4,5,
{8}6xh[16:1]/2xh[16:1],6xh[16:1]/2xh[16:1],6xbqq2[4:4]/2xbqq6[4:4],,,,,,,,,,,,,,
E
