&title=秋風恋歌
&artist=DeZI:R
&first=-0.02
&des=夜梨
&lv_5=13
&inote_5=(102)
{1},
{16}4>2[12:1]/6h[4:7],,,,,,,,1p5[8:1],,,,,,,,
4p2[4:2],,,,,,,,,,,,,,,,
5<7[12:1]/3h[4:7],,,,,,,,8q4[8:1],,,,,,,,
5q7[4:2],,,,,,,,,,,,,,,,
4>1[8:1]/8h[4:7],,,,,,,,6p2[8:1],,,,,,,,
1pp6[4:2],,,,,,,,,,,,,,,,
1h[8:7]/5<8[8:1],,,,,,,,3<6[8:1],,,,,,,,
3b/8bq5[8:1],,,,4bq1[8:1]/8b,,,,4b/7b,,,,4h[8:1]/6h[8:1],,,,
2/8h[4:1],,,,3<6[8:1],,1,,7h[4:1],,,,1>4[8:1],,3,,
6p4[8:3],,8,,2h[4:2],,,,,,,,5,,46,,
7/1h[4:1],,,,6>3[8:1],,8,,2h[4:1],,,,1>4[8:1],,7,,
5h[16:3],,,2,6>3[8:1],,17,,2h[4:1],,,,4,,17,,
3/5h[4:1],,,,2<7[8:1],,4,,6h[4:1],,,,4>1[8:1],,2,,
7pp2[8:3],,5,,3h[4:2],,,,,,,,7,,45,,
6/2h[4:1],,,,3h[8:1],,5h[8:1],,7h[8:1],,{24}4,5,3,{16}4>1[8:1],,56,,
7b<4[8:1]/4b,,,,7bpp2[8:3]/5bp3[8:3],,,,,,,,,,,,
6h[4:1],,,,4h[8:1],,,,5h[8:1],,,,3,,4,,
6,,4h[16:1],,5,,3,,5,,,,3,,2,,
1h[8:1]/7,,,,1h[8:1]/5,,,,1h[8:1]/3h[8:1],,,,1h[8:1]/5,,,,
7h[8:1]/1,,,,4,,6,,3,,4,,5,,6,,
34,,,,5/3h[8:1],,,,4/3h[8:1],,,,3,,4,,
5,,4h[16:1],,6,,5,,6,,,,7,,5,,
6h[8:1]/4h[8:1],,,,2,,4,,3h[8:1]/5h[8:1],,,,6,,4,,
3h[8:1]/5h[8:1],,,,3h[8:1]/7h[8:1],,,,3h[8:1]/1b<5[8:1],,,,4,,2,,
1b>5[8:1]/8b,,7,,6,,7,7,3,1,3,,4,6,2,,
5/3>7[8:1],,2,4,3,,5,,6,4,5,3,8,2,7,1,
8<4[8:1],,2,,3,,2,2,6,8,6,,3,5,1,,
4>8[8:1]/6,,3,5,4,,6,6,3,4,1,6,4,5,2,7,
1<5[8:1],,2,,4q1[8:1],,2,2,4,3,3,,3,5,1,,
2>6[8:1],,3,1,2,,8,,3,5,2,8,4,6,1,7,
8>4[8:1],,7,,5p8[8:1],,6,6,1,,,,4>1[8:1],7,5,6,
4<7[8:1],,5,,1>5[8:1]*<5[8:1]/4,,2,8,1b,,,,3<6[8:1]/7,,28,,
4>1[8:1]/3,,,,4/8<5[12:1],,,,4pp6[8:1]/8,,2>4[12:1],2,4>1[8:1],,2,,
8>5[6:1],,7,6,5qq3[8:1],,7,,8h[4:1],,,,1p5[8:1],,2,,
1/3<6[8:1],,,,7>2[8:1]/3,,,,4q1[8:1]/7,,3<6[8:1],3,4,,3,,
7h[8:1],,{24}2,8,3,{16}1>4[8:1]*q5[8:1],,8,,1,,,,3/5<8[8:1],,2,,
6>3[8:1]/5,,,,2<7[8:1]/6,,,,1>4[8:1]/2,,,,15,,7,,
3h[8:1]/1,,{24}7,1,6,{16}8<5[8:1]*>3[8:1],,2,,8,,,,5<8[8:1]/7,,4,,
35,,2,2,4>1[8:1],,7<4[8:1],,4q8[8:1],,7,,1>4[8:1],,2,,
1bp5[8:1]/5bp1[8:1],,7,,1b>4[8:1]/5b<8[8:1],,,,1b/5b,,,,2,6,4,8,
2pp5[4:3],,,,,,,,,,,,,,,,
6pp1[4:3],,,,,,,,,,,,2,,,,
3pp6[4:3],,,,,,,,,,,,,,,,
7pp2[4:3],,,,,,,,,,,,3,,,,
4qq7[4:3],,,,,,,,,,,,,,,,
8pp5[4:3],,,,,,,,,,,,4,,,,
4>5[4:3],,,,,,,,,,,,,,,,
1<2[4:2],,,,,,,,,,,,5,,,,
7h[4:7]/4<6[12:1],,,,,,,,3<6[8:1],,,,,,,,
2q6[8:1],,,,,,,,1q6[8:1],,,,,,,,
8h[4:7]/5<7[12:1],,,,,,,,4<7[8:1],,,,,,,,
3q7[8:1],,,,,,,,3<7[8:1],,,,,,,,
2h[4:7]/5>3[12:1],,,,,,,,6>3[8:1],,,,,,,,
7p3[8:1],,,,,,,,8p3[8:1],,,,,,,,
1h[4:3]/4>2[12:1],,,,,,,,6>2[8:1],,,,,,,,
47,,2,4,3,,17,,4w8[8:1],6,2,8,4,,,,
5<8[8:1]/3,,,,5/1>4[12:1],,,,5>2[8:1]/1,,7qq5[8:1],7,5<8[8:1],,7,,
1<5[8:1],,2,3,4q8[8:1],,3,,2h[4:1],,,,1>4[8:1],,8,,
1/6q2[8:1],,,,1p5[8:1]/6,,,,4q8[8:1]/1,,2q6[8:1],2,4,,2,,
8h[8:1],,{24}3,7,1,{16}5>2[8:1]*<8[8:1],,28,,5,,,,6/4>1[8:1],,8,,
3<6[8:1]/4,,,,7>2[8:1]/3,,,,8<5[8:1]/7,,,,84,,2,,
6h[8:1]/8,,{24}1,5,3,{16}7>3[8:1]*q3[8:1],,56,,7,,,,5<8[8:1]/6,,24,,
15,,3,3,4>1[8:1],,7<4[8:1],,4pp6[8:1],,7,,1>4[8:1],,2,,
1bqq8[8:1]/5bqq4[8:1],,7,,1bqq6[8:3]/5bqq2[8:3],,,,1b/5b,,,,,,,,
4>1[8:1]/7<4[8:1],,3,,4q8[8:1]/7,,,,1p5[8:1],,3p7[8:1],3,1,,3,,
4>8[8:1],,8q4[8:1],6,4q8[8:1]*<7[8:1],,7,,,,,,5q1[8:1]/6,,3,,
5<8[8:1]/2q6[8:1],,3,,5p1[8:1]/2,,,,8q4[8:1],,6q2[8:1],6,8,,6,,
4h[8:1],,{24}1,3,5,{16}3<7[8:1]*>7[8:1],,68,,3b,,,,3/5<8[8:1],,24,,
1p5[8:1]/5,,3,,4q8[8:1]/1<4[4:1],,2,,4qq5[4:1]/1,,,,8,,7,,
6h[8:1],,{24}3,8,1,{16}6<2[8:1]*q2[8:1],,34,,6,,,,4>1[8:1]/5,,7<4[8:1]/3,,
48,,7,,2>6[8:1],,7>2[8:1],,2pp4[8:1]*qq8[8:1],,7,,,,,,
3b<6[8:1]/6b,,1,8,3b>5[8:3]/7b>5[8:3],,8,,3b/7b,,,,,,,,
8/2h[4:1],,,,4>1[8:1],,56,,8h[4:1]/4,,,,6<1[8:1],,35,,
4pp7[8:3]/6,,2,,3h[4:2]/4,,,,,,,,5,,28,,
3/5h[4:1],,,,7<4[8:1],,18,,3h[4:1]/7,,,,2>5[8:1],,18,,
6h[16:3]/2,,,3,8>4[8:1],,56,,7h[4:1]/8,,,,6,,18,,
4/7h[4:1],,,,5<8[8:1],,43,,1h[4:1]/5,,,,3>8[8:1],,64,,
5qq2[8:3]/3,,7,,6h[4:2]/5,,,,,,,,4,,71,,
4/5h[4:1],,,,8h[8:1],,6h[8:1],,2h[8:1],,{24}5,1,7,{16}3<6[8:1],,18,,
6b>2[8:1]*p2[8:1]/3b,,,,6bpp3[8:3],,,,6b/5b,,,,,,,,
1b/8b,,,,,,,,,,,,,,,,
