&title=我ら!ゴミ分別団
&artist=かてらざわ
&first=0.01
&des=SeiKA
&lv_5=12+
&inote_5=(166)
{1},
{4}5<8[4:1],,4>1[4:1],,4-7[4:1],,5-2[4:1],,
{4}8-4[4:1],,2-6[4:1],,5>1[4:1]*<1[4:1],,,,
{4}2v4[8:1]/4xh[4:1],,7v5[8:1]b/5bxh[4:1],,2qq6[2:1],,,,
{4}7-4-1[2:1]/4h[4:3],,,,6x/7x,2x-7[4:1]/3x-6[4:1],,,
{16}5x/7x,,7,,57,,,,6,5,7,,8v5[8:1],,,,8xv3[8:1],,,,4xp5[4:1],,,,,,,,,,,,
{16}56,,6,,57,,7,,5bxh[4:1]/8v5[8:1]b,,,,,,,,2-7v4[4:1]/4xh[4:1],,,,,,,,,,,,8x,,,,
{16}1x/3x,,3,,13,,,,5bxh[4:1],,,,4xh[4:1],,,,2v4[4:1]b*<6[4:1],,,,,,,,,,,,3,,,,
{16}2-7[8:1],,2,,3-6[8:1],,3,,1>6[4:1]b,,1,,Ch[4:1],,,,,,,,,,,,,,E7,B7,C,B3,E3,,
{16}5bxh[8:1]/1xh[2:3],,,,5bxh[8:1],,,,4xh[8:1],,,5bxh[8:1],,,4xh[8:1],,,,5bxh,,4xh,,,,4xh[8:1],,,5bxh[8:1],,,5bxh[8:1],,
{16}2>5>4<5>4<5>4<5>4<5>4<5>4<5<6[8:5],,,,,,,,,,,,,,8bx-5>4<5>4<5>4<5>4<5>4<5>4>3[8:5]b,,,,,,,,,,,,,,1bx,,,,
{16}4xh[8:1]/2xh[2:3],,,,5bxh[8:1],,,,4xh[8:1],,,5bxh[8:1],,,5bxh[8:1],,,,5bxh,,5bxh,,,,5bxh[8:1],,,5bxh[8:1],,,4xh[8:1],,
{16}8x-4[4:3]b,,,,,,,,,,,,,,3xv5[4:1]*>7[4:1],,,,,,,,,,,,,,2-6[8:1],,,,
{8}2x/8x-5[4:1]*z4[4:1],,,,,,3-8[8:1],3,7V51[4:1],7,1x-3[8:1],,4x,,56,7,
{8}8x>3[4:1],,3<6[4:1],,6<1[4:1],,1,2,3v6[4:1],3,A1/A8,,,,7,7,
{8}8x-4[8:1],,3/8,,2v5[8:1]/5<7[8:1],1,,,8qq8[4:1],8,2,,4b,,1-4[8:1],1,
{8}1x-6[8:1],,1x,,5,4,2x-7[4:1]/3x-6[4:1],2x/3x,,,,,2b,,,,
{16}7h[2:1]/8h[2:1],,,,,,,,,,,,78,,,,6,,6,,5-8[4:1],,5,,,,,,7,,,,
{16}1-6v4[2:1]/4xh[4:1],,,,,,,,,,,,7,,,,7-3-6-1-5[2:1]b/5bxh[4:1],,,,,,,,,,,,,,,,
{16}34,,2,,1,,,,2,1,3,,4,,,,4<5>4<5>4<5>4<5>4>3[4:1]b/5>4<5>4<5>4<5>4<5<6[4:1],,,,,,,,A3/A6,,,,1,,,,2-5[8:1],,2,,7-4[8:1]b,,7,,1-5[8:1],,1,,8>7[2:1],,8,
{16},,,,,,,,,,,E7,B7,C,B3,E3,,
{16}3xh[8:1]/4xh[8:1],,,,7bxh[8:1]/6bxh[8:1],,,,5bxh[16:3]/8v5[8:1]b,,,8x,,,,,,,6bxh,,4xh,,,,5bxh[16:3]/8-5[8:1]b*>1s5[8:1]b,,,8x,,,,,
{16}2x>5>4<5>4<5>4<5>4<5>4<5>4<5>4<5>4>3[8:5]b,,,,,,,,,,,,,,1x-3<4v5<6-8[8:5]b,,,,,,,,,,,,,,1x,,,,
{16}3xh[8:1]/4xh[8:1],,,,7bxh[8:1]/6bxh[8:1],,,,5bxh[16:3]/6qq5[8:1]b,,,6x,,,,,,,2x/5bx,,2xqq5[8:3]b/5bxh[4:1],,,,,,,,,,,,
{16}7x<4<5>4<5>4<5>4qq8[4:3],,,,,,,,,,,,B2/E3,,,,,,2,,2>6[4:1],,2,,,,,,7-3[8:1],,,,
{16}7/8-5[4:1]*z4[4:1],,,,,,,,,,,,6x-2[8:1],,6,,1V37[4:1],,1,,7-5[8:1],,,,8x,,,,1pp2[4:1]*pp2[4:1],,2<2[8:3],,
{16},,,,,,,,1-5[8:1],,1,,7-4[8:1],,7,,3x,,2x,,1x,,8x,,7x,,,,2<5[4:1],,2,,
{16}5>8[4:1],,,,8w4[8:1],,,,,,,,2-6[8:1],,2,,8-3[8:1]*-5[8:1],,8,,8-2[8:1]*-4[8:1],,,,,,,,7,,7,,
{16}8x-4[8:1]/6x<1[8:1],,,,,,,,5x,,,,2x-7[4:1]/3x-6[4:1],,2x/3x,,,,,,,,,,Cf,,,,,,,,
{16}57,,7,,5/8>1-4[4:1]*-5[4:1],,,,,,,,,,,,2q4[4:1],,,,6pp4[4:1],,,,,,,,,,,,
{16}5x-3[8:1]/6x,,6,,5-7[8:1]/8,,,,,,,,1,,1,,8-4[8:1]/4xh[4:1],,,,,,,,7v5[8:1]b/5bxh[4:1],,,,,,,,
{16}3x/4x,,3,,24,,,,2,,1,,3,8,3,,2-5[8:1]b,,2,,7-4[8:1],,7,,1-5[8:1]b,,1,,,,,,
{16},,,,,,,,,,,,2x<4[2:1]/3x,,2x/3x,,2x/3x,,,,,,,,,,Cf,,,,,,
{16}5bxh[8:1]/7bxh[8:1],,,,5bxh[8:1]/7bxh[8:1],,,,3xh[8:1]/4xh[8:1],,,5bxh[8:1]/7bxh[8:1],,,3xh[8:1]/4xh[8:1],,,,5bxh,,3bxh,,,,4,,,4xh[16:3],,,6b,,
{16}7<4<5>4<5>4<5>4<5>4>3[8:5],,,,,,,,,,,,,,2bh[8:7],,,,,,,,,,,,,,8x,,,,
{16}4h[4:1],,,,6b,,,,4,,,3h[16:3],,,6b,,,,4h[8:1],,6b,,,,3,,,4h[16:3],,,6b,,
{16}4xh[4:5]/5xh[4:5],,,,,,,,,,,,,,,,,,,,,,,,1-4[8:1]/8-5[8:1],,,,,,,,
{4}7V53[2:1],,8,8,7V53[2:1],,8,8,7<3[2:1],,8,8,7pp3[2:1],,,,
{4}1>4[4:1],,8<5[4:1],,1-5[4:1],,8-4[4:1],,2z6[4:1]b,,,7x-5[8:1],
{4}1b-3[8:1]/7b,1b/7b,{32}E1,E8,E7,E6,E5,E4,E3,E2,E1,,,,,,,,
{16}2-7[8:1]/6-3[8:1],,,,2b/6b,,,,1x>5[4:1],,,,6pp5[4:1],,6,,,,,,4-8[8:1],,4,,,,,,1v4[8:1]/5-8[8:1],,,,1b/5b,,,,7,,,,56,,4,,3V17[4:1],,,,7V13[4:1],,,,,,,,5-1[8:1],,,,5b/2b>5[8:1],,,,2/8-4[8:1],,,,8V25[4:1],,,,6,,7,,8-6[8:1],,,,8-2[8:1],,5,,8-4[8:1],,3,,8w4[8:1]b,,,,,,,,2-5[8:1]b,,1,,6-1[8:1]b,,7,,4,,4,,3v4[8:1]b/8v7[8:1]b,,,,
{4}Cf,,,,,,Ch[2:12]/E3/E7,
