&title=Like a Fool
&artist=Mr.Funky/Purple J
&first=0
&des=ohno妈咪何意味,队友操作非人类
&lv_5=13
&lv_6=13
&inote_5=(95)
{4},,,,
{16}5/4h[4:1],,,,,,6,,,,3h[16:1],,,3h[16:1],,,
{16}5/3h[4:1],,,,,,6h[16:1],,,,6h[16:1],,,5h[16:1],,,
{16}4/6h[2:1],,,,4,,,,,,3h[16:1],,,3h[16:1],,,
{24}6/4,,4,5,,5,2,,2,8,,8,3,5,4,7,5,6,1-5[12:1],,,2,,,
{16}1b/7x,,,,7-5[12:1],,3,,,,3h[16:1],,6-8[12:1],3h[16:1],,,
{16}6qq4[6:1],,,,2,,2h[12:1],,,,2h[16:1],,5-7[12:1],2h[16:1],,,
{16}5qq3[6:1],,,,7,,6,,,,6h[16:1],,4-2[12:1],6h[16:1],,,
{16}4pp5[4:1],,,,2,,3,,,,3h[16:1],,8<5[12:1],3h[16:1],,,
{16}8bv2[6:1]/2x,,,,5,,6,,,,7h[16:1],,1-3[12:1],7h[16:1],,,
{16}1qq7[6:1],,,,4,,2h[12:1],,,,2h[16:1],,8-6[12:1],2h[16:1],,,
{16}8pp1[4:1],,,,5,,6,,,,7h[16:1],,1-3[12:1],7h[16:1],,,
{24}1x/5,,5,4x,,4,7,,7,1,,1,6,4,5,2,4,3,5,6,7,1,2,3,
{16}4/8b,,2,,8-4[12:1],,2/7,,8,,2h[16:1],,5v8[12:1],2h[16:1],,,
{16}5x/3h,,,,4v1[12:1],,7h[16:1],,4,,7h[16:1],,2-4[12:1],7h[16:1],,,
{16}7h/2x,,7,,4<1[6:1]p4[6:1],,C,,,,3h[16:1],,,3h[16:1],,,
{16}3-8[12:1]/7h[64:1],,2,,5-8[12:1]/3,,6,,5,,2h[16:1],,6,2h[16:1],,,
{16}5xh[8:1]/1bx,,3h[4:1],,1q5[12:1],,4,,1qq7[6:1],,6,,1,,,,
{16}4xh[8:1]/8bx,,6h[4:1],,8p4[12:1],,5,,8pp1[6:1],,3,,8,,,,
{16}2h/7,,E1,,C/6xv3[12:1],,E5,,6xv1[12:1],,2h[12:1],,6,2h[12:1],,,
{32}7h/2b,,3,,6,,4,,5,,3,,6,,1,,8-4[12:1],7,6,,4x,,,,1/8b,,,,,,,,
{16}2x<7[12:1]/7,,3,,5-1[12:1]/2,,6,,2-6-4[6:1]/5,,3,,2,,,,
{16}7x>2[12:1],,6,,7/4-8[12:1],,3,,4/7-3-5[6:1],,6,,7,,,,
{16}1x,,4q1[8:1]/6<1[8:1],,1>4[8:1],,6/4<6[12:1],,,,7,,8b,,3,4,
{32}2,,,8xh[32:3],,,4xh[8:1],,,,6xh[8:1],,,,7>4qq5[3:1],,,,5,,5,,,,6,,,,7,,,,
{16}8x<5[12:1],,3,,8/2-6[12:1],,1,,2/8-4-2[6:1],,7,,4bx/8bx,,,,
{16}1x>4[12:1],,6,,1/7-3[12:1],,8,,7/1-5-7[6:1],,2,,5bx/1bx,,,,
{16}8x,1x,2x/7x,,1>4[8:1],,4<1[6:1]*q1[6:1],,,,,,,,3q6[16:5],,
{16}3,,,,,,,,{24}8,7,6,4,3,2,1b/8b,,,{16}2,6,
{16}4bx,7,3,6,B1,5,4,7,1,B8,3,5,C,,7,3,
{16}5bx,2,6,2,B7,4,5,2,8,B2,6,5,C,,2x,6x,
{16}8/4bx,2,6,4,B6,2,3,7,6,B3,8,4,C,,3x,7x,
{16}1/5bx,6,7,2,B5,2,3,7,6/B4,,2,,C/4,,8,,
{16}5b/1-6[12:1],,2,,1/3-8[12:1],,4,,5-2[12:1]/3,,6,,7-4[12:1]/5,,,,
{16}7pp6[16:4],,,,2x/7x,,3x,,4x,,5x,,5x-8<5[4:1],,,,
{16}5/3-8>3[4:1],,,,3<6[5:1],,,,6p5[4:1],,,,5x>1[4:1],,,,
{16}1x<5[4:1],,,,5x>1[4:1],,,,7,,5,,3,,1,,
{16}4x/6xb-8b[8:1]-5[8:1]-1[8:1]-4[8:1]-2[8:1],,,,6,,,,A5,,,,A4,,,,
{16}1v8[8:1]/8,,E6/E4,,1>4[8:1]v2[8:1]/8,,,,1bx/B5,,B6,,B7,,B8,,
{16}5<8[9:1]/B1,,B2,,B3/A5,,B4,,1>4[9:1]/B5,,B6,,A1/B7,,B8/C,,
{32}4/5,,4,,6,,3,,7,,2,,6,,1,,1bx-5[12:1]/5,8,7,6,5-1[12:1],4,3,2,1bx/E8/B7f/E7,,,,E4/E3/B3f,,,,
{24}2xb-6[8:1],,,1,,,2/7v4[12:1],,,8,,1,7<5[12:1],,,3>1[12:1],,,7,,,3,,,
{24}7xb-3[8:1],,,8,,,7/2v5[12:1],,,1,,8,2>4[12:1],,,6<8[12:1],,,2,,,6,,,
{24}3,,,8p4[8:1]/7<4[8:1],,,4>1[8:1],,,8q4[8:1]/7,,,,,,,,,6,,,{16}3,4,
{32}2,,,1xh[32:3],,,5xh[8:1],,,,3xh[8:1],,,,2<5pp4[3:1],,,,4,,4,,,,3,,,,2,,,,
{24}1xb>5[8:1],,,8,,7,1V75[8:1],,,8,,3,1x/4x-8[12:1],,,2-5[12:1],,,4,,,2,,,
{24}8xb<4[8:1],,,1,,2,8V24[8:1],,,1,,6,8x/5x-1[12:1],,,7-4[12:1],,,5,,,7,,,
{16}1x-5[12:1],,5x-1[12:1],,1b,,E8/E7/B7,,7x-3[12:1],,3x-7[12:1],,7b,,E5/E6/B5,,
{16}3x,3,4x,4,5x,5,6x,6,
{24}6p3[4:1],7,8/1,2,3,,6b,,,,,,
{16}4xh[4:1],,,,6-8[12:1],,3,,,,3h[16:1],,7-5[12:1],3h[16:1],,,
{16}7/3xh[4:1],,,,6-8[12:1],,3h[16:1],,,,3h[16:1],,7-5[12:1],3h[16:1],,,
{16}3/7,,,,2-4[12:1],,5,,,,6h[16:1],,3-1[12:1],6h[16:1],,,
{16}6/3,,,,2-4[8:1],,4-8[8:1]-2[8:1]v7[8:1],,,,6h[16:1],,,6h[16:1],
E
&inote_6=(95)
{4}
,,,,
{16}7>2[8:13]/4h[4:1],,{8},,4,,{16}4h[16:1],,,4h[16:1],,,
{16}6h[4:1],,,,,,6h[16:1],,,,6xh[16:1],,,6h[16:1],,,
{16}2<7b[8:5]/5h[4:1],,,,,,5,,,,3h[16:1],,,3h[16:1],,,
{24}6/4,,4,5,,5,2,,2,8,,8,3,5,4,7,5,6,1-5[12:1],,,2,,,
{16}1b/7x,,,,6,,4h[12:1],,,,4h[16:1],,6-8[12:1],4h[16:1],,,
{16}6v4[6:1],,,,1,,3h[12:1],,,,3h[16:1],,5-7[12:1],3h[16:1],,,
{16}5qq3[6:1],,,,8,,6h[12:1],,,,6h[16:1],,4-2[12:1],6h[16:1],,,
{16}4pp5[4:1],,,,1,,3h[12:1],,,,3h[16:1],,8-5[12:1],3h[16:1],,,
{16}8bv2[6:1]/2x,,,,5,,7h[12:1],,,,7h[16:1],,1-3[12:1],7h[16:1],,,
{16}1qq7[6:1],,,,4,,2h[12:1],,,,2h[16:1],,8-6[12:1],2h[16:1],,,
{16}8pp1[4:1],,,,5,,7h[12:1],,,,7h[16:1],,1-4[12:1],7h[16:1],,,
{24}1/5,,5,3,,3,7,,7,1,,1,6,4,5,2,4,3,5,6,7,1,2,3,
{16}8/4<7[8:1],,,,,,,,,,,,,,,,
{16},,,,,,,,,,,,,,,,
{16},,,,,,,,,,,,,,,,
{16},,,,,,,,,,,,,,,,
{16},,,,,,,,,,,,,,,,
{16},,,,,,,,,,,,,,,,
{16},,,,,,,,,,,,,,,,
{16},,,,,,,,,,,,,,,,
{16}
2x<7[12:1]/7,,3,,5-1[12:1]/2,,6,,2v4[12:1]<5[12:1]/5,,3,,2b,,,,8xp4[12:1]/2,,7,,8/2v7[12:1],,3,,2/5v8[12:1]<7[12:1],,6,,5b,,,,1q5[12:1],,7p3[12:1],,1,,7,,2q7[12:1],,5,,2,,,,1-5[12:1],,7-3[12:1],,1,,7,,4v1[12:1]*v7[12:1],,8,,,,,
{32}
,,8xv5[12:1],,,,2,,,,8<5[12:1],,,,2,,,,8/1-5[12:1]>3[12:1],,,,2,,,,1bx/E8/B8,,,,E7/B7,,,,4v1[12:1],,,,7,,,,4>1[12:1],,,,7,,,,4/5-1[12:1]<7[12:1],,,,,,,,5bx/B4/E4,,,,B3/E3,,,,3x,,5x,,2x/7x,,,,1-5[12:1],,,,5pp5[9:1]*qq5[9:1],,,,,,,,,,,,,,,,1/8,,,,7h[64:1]/2,,3,,E8,,E2,,E7,,E1,,E6,,E8,,
{24}
1,3,2,8,6,7,1b/8b,,,
{48}
3,,,7,,,1/5,,,3,,,7,E8,,2,,,6,E7,,4,,,,E1,,3,,,7,,,1,,,6,E7,,1,,,7,E8,,3,,,,E1,,,,,1/5,,,3,,,7,E8,,2,,,6,E7,,3,,,8,E1,,2,,,7,,,3,,,6,E7,,2,,,7,E8,,4,,,,E7,,,,,1/5,,,3,,,7,E8,,2,,,6,E7,,3,,,8,E1,,3,,,6,,,4,,,7,E7,,4,,,7,E8,,2,,,,E1,,,,,1/5,,,3,,,7,E8,,2,,,6,E7,,4,,,8,E1,,,,,4h[48:1],,,,,,6h[48:1],E7,,,,,8h[48:1],E8,,,,,2h[48:1],E1/C,,,,,1>3[12:1],,,
{16}
,,,5<7[12:1],,,,3<5[12:1],,,,8v5[12:1],,,,8v3[12:1],,,,8-4[12:1],,,,8,,2,,5<1[4:1],,3,,1>5[4:1],,,,5<1[4:1],,,,1,,,,4-1[12:1]*-2[12:1],,,,4-7[12:1]*-6[12:1],,,,4-8[12:1],,,,4,,6,,3/7,,4,,7-2[12:1],,2,,7-3[12:1],,3,,7-4[12:1],,4,,7,,2,,1<4[6:1]/8,,4/5,,1q4[5:1],,,,1p5[9:1],,,,1,,,,2-6[12:1],,6,,2/7-3[12:1],,8,,7/2,,1,,8/1,,3/6,,
{32}
5x/3x,,4,,6/4,,5,,5x/3x,,3,,3/6,,6,,2bx-6[12:1]/6,1,8,7,6-2[12:1],5,4,,2bx/E8/B8f/E1,,,,E4/E5/B4f,,,,
{16}
2x-7[12:1]/6x,,7,,8-5[12:1]/2,,6,,6-3[12:1]/8,,4-1[12:1],,6,,,,2x-5[12:1]/8x,,3,,3-8[12:1]/2,,4,,1-6[12:1],,7-4[12:1],,1,,,,5x-1[12:1],,1x-5[12:1],,E8/E7/B7,,E3/E4/B3,,3x-7[12:1],,7x-3[12:1],,E6/E5/B5,,E1/E2/B1,,1x-5[12:1]/8x,,8x-4[12:1],,1x-3[12:1],,8x-6[12:1],,1x-5[12:1],,8,,1,,8,,
7x-2[12:1]/3x,,2,,1-4[12:1]/7,,3,,3-6[12:1]/1,,5-8[12:1],,3,,,,7x-4[12:1]/1x,,6,,6-1[12:1]/7,,5,,8-3[12:1],,2-5[12:1],,8,,,,4x-8[12:1],,8x-4[12:1],,E7/E6/B6,,E2/E3/B2,,6x-2[12:1],,2x-6[12:1],,E4/E5/B4,,E1/E8/B8,,
{16}
2x,3,3x,4,4x,5,5x,6,
{24}
6p3[6:1],7,8/1,2,3,,6b,,,,,,
{16}
5/4xh[4:1],,,,6-8[12:1],,3,,,,3h[16:1],,7-5[12:1],3h[16:1],,,7/3xh[4:1],,,,6-8[12:1],,3h[16:1],,,,3h[16:1],,7-5[12:1],3h[16:1],,,3/7,,,,2-4[12:1],,5,,,,6h[16:1],,3-1[12:1],6h[16:1],,,6/3,,,,2-4[8:1],,4-8[8:1]-2[8:1]v7[8:1],,,,6h[16:1],,,6h[16:1],
