&title=loonboon
&artist=pvz
&first=2.95
&des=Greentea_3064
&lv_5=14
&inote_1=
&inote_5=(160)
{4}2qq6[8:5],,7-3[8:1]b,7,
{8}5/4,3,2/1,8,2/1,3,2/1,8,5/4,6,7/8,1,7/8,6,7/8,1,
{8}6hx[1:1],,E2,B5,E8,B4,B1,E6,
{16}C,,,8,6,,,1,3,,,7,5,,,2,
{4}4<8[4:1],8>4[4:1],4<8[4:1],8,
{16}4,,,1,3,,,8,6,,,2,4,,,7,
{8}5hx[4:4],,E2,B5,E8,B4,B1,E6,
{16}C,,,2,1/2,,,7,8/7,,,2,2/4,,,7,
{8}7/5qq6[8:3],,,7,7-3[8:1]*-4[8:1],,7b,,
{8}1qq2[8:3],,,3,3-7[8:1]*-8[8:1],,3b,,
{8}5qq6[8:3],,,7,7-3[8:1]*-4[8:1],,7b,,
{8}1qq2[8:3],,,3,3-7[8:1]*-8[8:1],,3b,,
{4}2b/6b,B2/B6,3b/7b,B7/B3,
{4}2b/5b,4b/7b,1b/6b,8b/3b,
{8}5,5,4/6,4/6,
{16}3,7,3,7,2-4[8:1],8,2,8,2-6[8:1],,,6,2-8[8:1],,,8,2v5[6:1],,,5,2,,,7,
{16}2h[8:1],,6,6,2h[8:1],5,5,,2h[16:1],4,,4,2h[8:1],,5,,
{16}3h[8:1],,7,7,3h[8:1],6,6,,3h[16:1],5,,5,3h[8:1],,6,,
{8}3/6,,3-6[8:1],6>3[8:1],3-8[8:1],8>3[8:1],7-3[8:1],7,
{16}7,,,2,1,,,7,8,,,3,2/4,,,6,
{16}7b-5[8:1]/5b,,3,3,7v4[8:1],2,2,,7-5[8:1],1,,1,7v4[8:1],,2,,
{16}7-5[8:1],,3,3,7v4[8:1],2,2,,7-5[8:1],1,,1,7,,2,,
{8}7b/3b-6[8:1],,3/7-4[8:1],8,7/3-6[8:1],2,7-4[8:1]/3,8,
{16}7/3,,,2,2/1,,,7,7/8,,,2,3/1,,,7,
{4}8b-2[8:1]/6bqq4v6[8:5],8,2v8[6:1],2,
{4}5b-3[8:1]/7bpp1v7[8:5],5,3v5[6:1],3,
{4}6>4[4:1],4>2[4:1],2<7[4:1],7<3[4:1],3>6[4:1],6,
{32}B5,B4,B3,B2,B1,B8,B7,B6,
{4}B5,
{4}3/Cf,7/C,2/Cf,6/C,1/Cf,5/C,4/Cf,8/C,
{4}1-7[4:1],7-2[4:1],2-6[4:1],6-3[4:1],
{1}3pp7[2:1]b*qq7[2:1]b,
{8}3-6[8:1],6,7,8-5[8:1],5,4,3-8[8:1],8,7,6-3[8:1],2,1,8qq6[6:1],8<6[12:1],,,
{8}1-6[8:1],8,1,8-3[8:1],1,8,2-6[8:1],4,
{16}2b/6,,7-3[8:1],8,5,,7b/3,,2v5p8[4:1],1,4,,
{4}2b/5,
{8}6-3[8:1],3,2,1-4[8:1],4,5,6-1[8:1],1,2,3-6[8:1],7,8,1v7[6:1],1<7[12:1],,,
{8}2-6[8:1],6>4v1[9:2],2,7,8-6-4[6:1],2,8/2-6[8:1],3,
{16}2b/6,,7-3[8:1],8,5,,7b/3,,2-7[8:1],1,4,,
{4}2b/7,
{8}2>5[4:1],8,6>3[4:1],8,2>5[4:1],8,6>3[4:1],8,2>5[4:1],8,6<3[4:1],8>3[8:1],6,3,
{4},
{8}3<6[4:1],1,7<4[4:1],1,1>2-4[8:1],1<8-6[8:1],1-5[8:1]*-5[8:1],1,
{16}1b,,8-4[8:1],1,7,,8b,,2v5[8:1],8,1v4[8:1],,
{8}2b,1,
{8}2-4[8:1],1-5[8:1],2,1,8-4[8:1],7-5[8:1],8,7,
{8}1<6[8:1],6,1>4[8:1],4,1-5[8:1],5,1b,,
{8}7-5[8:1],8-4[8:1],7,8,1-5[8:1],2-4[8:1],1,2,
{4}8<7-5[8:1],8>1-3[8:1],8w4[8:1],8,
{8}2-4[8:1],1-5[8:1],2,1,8-4[8:1],7-5[8:1],8,7,
{4}1>2-4[8:1]*-3[8:1],1<8-6[8:1]*-7[8:1],1w5[8:1]*w5[8:1],1,
{8}Ch[4:4]/3,3,2,2,1,1,2q3[4:1],2,
{4},,
{16}3,3,3,3,
{4}3,
{8}Ch[4:4]/6,6,7,7,8,8,7p6[4:1],7,
{4},,
{16}6,6,6,6,
{4}6,
{8}6/2x,6,7,7,8/1x,8,7/2x,7,
{4}6/3xh[4:1],,
{16}7,7,7,7,
{4}7,
{8}3/7x,3,2,2,1/8x,1,2/7x,2,
{4}3/6xh[4:1],,
{16}2,2,2,2,
{4}2,
{8}2-4[8:1],4-2[8:1],2-8-4[4:1],8-4[8:1],6-2[8:1],,6bx,,
{8}7-5[8:1],5-7[8:1],7-1-5[4:1],1-5[8:1],3-7[8:1],,3bx,,
{8}1-3-5[6:1],7,5-1[8:1],7,1-3-5[6:1],7,5,7,
{8}8-6-4[6:1],2,4-8[8:1],2,8-6-4[6:1],2,4,2,
{16}2-5[8:1]/5,,1,8,2,,8,,7-4[8:1]/4,,8,1,7qq4<6[4:3],,1,,
{8}A7f,,,1>4[8:1],1,,,,
{16}7-4[8:1]/4,,8,1,7,,1,,2-5[8:1]/5,,1,8,2pp5>3[4:3],,8,,
{8}A2f,,,8<5[8:1],8,,,,
{8}3<6[8:1],7,3-1[8:1],1-5[8:1],7-3[8:1]/3,,7,,
{8}6>3[8:1],2,6-8[8:1],8-4[8:1],2-6[8:1]/6,,2,,
{16}2,1,3,8,4,7,5,6,8,7,1,6,2,5,3,4,
{32}2,3,4,5,6,7,8,1,2/6,5,4,3,2,1,8,7,
{8}2-7[8:1]/6-3[8:1],4/8,2/6,
E
