&title=A Man In The Mirror
&artist=orangentle
&first=0.024
&des=柏木咲姫の犬
&lv_5=14+
&des_5=柏木咲姫の犬
&inote_5=
(180){4},{16}1,8,2,7,3/6bxpp1[8:3],,,4,,,{8}3,
{4}3,{8}2,2pp5b[8:3],,2/8,,7,
{4}7pp4[8:3],7/3s7s3b[8:5],{8}3,,,E6/B5/A5,
,,8qq4[2:1],8pp4[8:3],,,,,,1/7,
{16}2,6,3,5,{2}C/4p8[16:3]*q8[16:3],
{16},,7,3,6,4,{8}C/5q1[16:3]*p1[16:3],{16},,,,,,,,2pp5[8:3],
,,8,,,{8}7pp4b[8:7],{2}7s3[8:3],
{8},,,Ch[1:1],,8,,7,
,6,,5,{4}2b/8b,{16}1,1,6,6,
2,2,7,7,3,6,4,5,{4}1b/7bx,{16}8,8,3,3,
7,7,2,2,6,3,5,4,{4}2bx/8b,{16}5,5,3,3,
{24}6x,7,8,1x,2,3,6x,7,8,1x,2,3,{16}8x,8x,,2/6,,1/5,,4/8,
,,{8}2bx/C,6bx/C,1bx/C,{16},,,,2,6,3,7,
{8}8/4qq8[8:3],4,{16}8,7,{8}6,{16},5x,{8}5x<8[8:1],{16},,,,,,E3,
B3,B4,E5,E7,B7,{8}B8/4xq1[16:3],4x,{16},,7,6,
{8}5,2x>5[8:1],{16}1,8,{8}2,{16},,,,8,7,6,5,
{24}7x,6x,5x,4x,3x,2x,{16}5,6,7,8,1x>4[8:1],,,8,{8}1,8,
{16}8,7,6,5,2,3,{8}8/4h[4:1],{24},,,,,,2x,8,2,8,,,1x,
7,1,7,,,1x,8,1,8,{48},,,,{16}3p4[4:1],3,,7,,,{8}6,
6,{16}7,3x,6,4x,{8}5x/C,{16},,,,5,6,7,8,
{32}1/D5,D6,D7,D8,D1,D2,D3,D4,{4}C/D5f,{16}6,6h[16:7],,4,,4,,4,
3,2h[16:7],,5,,5,,5,6,7h[16:7],,4,,4,,4,
3,2h[16:7],{8}5b,6b,7b,{16}8,8h[16:7],,1,,1,,1,
2,3h[16:7],,8,,8,,8,7,6h[16:7],,1,,1,,1,
2,3h[16:7],{8}8b,7b,6b,{4}5pp1[8:3],{8}5,{16}2,3,
{8}4,4,3,3,{4}6/2qq5[8:3],{8}2,{16}5,6,
{8}7x,7x,8,8,8qq5[8:3],{16},,,,3,2,
{4}1v4[8:1]*>4[8:1],1v6[8:1]*<6[8:1],1-5[8:1],1,
{16}E7/E3,,,1/8,{8}1/8,2/7,2p4[4:1],{16}7<4b[8:1],7,{8}2,7-3-7[4:1],
,,{4}2,{8}3p5[4:1],{16}8<5b[8:1],8,{8}3,8-4-8[4:1],
{16},,,,,,3,2,{4}1h[4:1],{16}8,2,8,2,
7,3,7,3,6,4,6,4,{4}5b/C,{24}3x,4,3,4,,,6x,
5,6,5,,,{4}1,{8}2pp5[4:1],,,6,
7-3b[8:1],1V35[8:1],7<4b[8:1],1,7,2<7q5b[8:3],,2/7,
,,{4}6-2[8:1],{8}6,{16}1x,8,7,6,5,4,
8x,1,2,3,4,5,6,7,4,3,2,1,7,6,5,4,
1,2,3,4,1,8,7,6,{4}5/3-1-5[4:1],{12}3/5,6,7,
{8}8x-4[8:1],4x-8b[8:1],8,3,{16}1,2,{8}3h[4:1],{16}8,7,{8}6h[8:1],
{16}3,7,2,8,{8}1,2/8,{32}1x,2,3,4,1x,2,3,4,8x,7,6,5,8x,7,6,5,
{16}1,8,2,7,3,6,4,5,{4}1b,{24}1,8,1,8,1,8,
{32}1,2,3,4,5,6,7,8,1,2,3,4,5,6,7,8,{8}1x/5xh[8:7],C,,,,,,C,
4xh[8:7]/E6/D6,E5,,,,,,,5h[8:7]/D4/E4,
E5,{16},,,,,,,,,,4,
3,{8}2h[4:1],{16}5,6,{8}7h[4:1],{16}3,2,
{8}1h[4:1],{16}6,7,8x,1x,8x,1x,{8}8xh[8:7]/E2/D2,E1,,,,,2,
C,1xh[8:7]/D8/E8,E1,{4}7,
6,5,{8}8h[8:7]/E2/D2,E1,,,{4}2,
{8}1,1,2h[8:1],{16}6,5,{8}7h[8:1],{16}3,4,
{8}2h[8:1],{16}8,1,7,2,6,3,{8}4b/5b,{16}3,4,{8}2,{16}6,5,
{8}7pp6[8:3],{16},,,,2,3,{8}4qq8b[8:3],{16},,,,5,6,
7,,,7pp5[16:5],,,2,3,{8}4h[4:1],,,3h[16:5],
{16}5h[8:1],,,6h[8:1],{48},,,,,,{24}8,7,6,{4}5/4h[4:1],{16}5,3,6,2,
7,1,8,2,7,3,6,4,8,7,2,3,7,6,1,2,
6,5,2,3,7,6,3,4,8,1,8,1,{24}E8,E7,E6,E5,E4,E3,
A1,A8,A7,A6,A5,A4,{16}8x,1,8,1,{24}B7,B6,E6,E2,B1,B8,B5,B4,E4,E2,B2,B3,
E8,E7,E6,E3,E4,E5,D1,D8,D7,D3,D4,D5,6x,7,8,1x,2,3,5x,6,7,8x,1,2,
6x,7,8,1x,2,3,{48},,,,,,{16}7x/1x,6x/2x,5x/3xqq4[8:3],,,5,,,{8}6,
7pp5b[8:3],{16},,,,4,3,{8}2h[4:1],{16},,,,2/8,3/7,
4/6pp5[8:3],,,4,,,{8}3,2qq4b[8:3],{16},,,,5,6,
7h[8:1],,,8h[8:1],,,{8}8,8xqq4[8:3],{16},,,,1,2,
{8}3,{16},,,,7/3,6/2,5/1pp8b[8:3],,,4,,,{8}5,
6pp3[8:3],{16},,,,3,4,{8}5h[4:1],{16},,,,2/6,3/7,
4/8qq1b[8:3],,,5,,,{8}4,3qq6[8:3],{16},,,,6,5,
4,,,7,,,{8}7,1/8,2,1/8,7,
{16}1,8,1,8,{8}1,{16}1/5,2/6,{4}7b-4[8:1]/3b-8b[8:1],3b<6[8:1]/7b>2b[8:1],
3bv8b[8:1]/7bv4[8:1],3b/7b,{16}1x,8x,2x,7x,4x,5,3,6,
1,8,3,7,4,5,2,6,{4}7/1,{16}4,3,2,1,
5/8,6,7,8,{24}1/E4,E5,E6,E7,E8,E1,{8}E2,{24}5x,6,7,8/4,5,6,7,8,1,
{8}2/6,5,{16}4,3/5,{8}2h[8:1]/6h[8:1],,1/7,{32}2,3,4,5,1x,2,3,4,
7x,6,5,4,8x,7,6,5,{8}4bx,{16}1x,1x,{8}8bx/2bx,{32}1x,2,3,4,5,6,7,8,{16}1x,7x,
2,6,3,5,4,6,3,7,{8}2/8,{16}4,3,2,1,8/5,6,
7,8,1/4,3,2,1,{8}8/5,{16}6,4,7,3,{8}2/8h[16:5],{32}2,3,4,5,
6,7,1,2,{8}3b-8[8:1]/8bx-4[8:1],,3b/8b,{24},,,1,5,1,5,1,5,1,5,1,
5,1,5,1,5,1,{4}5b,{16}1,7,1,7,2,6,3,5,
4,6,4,6,3,7,2,8,{24}1x,7,2,6,{48},{16}3,5,3,4,3,
{8}5/2h[8:1],{16}6,5,{8}4/7h[8:1],{16}1,8,{8}2/7,{32}1x,2,3,4,8x,1,2,3,4,5,6,7,
{8}8/3h[8:1],{32}7x,6,5,4,8x,7,6,5,4,3,2,1,{8}8/5,{16}1,8,2,7,3,6,
4,5,3,6,2,7,1,8,1,1,7,3,6,4,5,3,
6,2,7,1,8,2,7,7,1x,1,3,3,5,5,7,7,
2,2,8,8,4,4,6,6,{32}1x,2,3,4,8x,7,6,5,2x,3,4,5,8x,7,6,5,
2x,3,4,5,1x,2,3,4,7x,6,5,4,8x,7,6,5,1x,2,3,4,1x,2,3,4,8x,7,6,5,8x,7,6,5,
1x,2,3,4,1x,8,7,6,1x,2,3,4,1x,8,7,6,{16}5bx/1bx,1bx,,2/6,,2/6,,3/7,
,3/7,,4/8,,4/8,,7b/3b,3x/7x,3bx/7bx,,6/2,,6/2,,5/1,
{8}5b/1b,2/6,2/6,3/7,{16}2/8,2b/8b,,3/7,,7/3,,4/6,
,4/6,,5/3,,5/3,,2b/6b,2x/6x,2bx/6bx,,1/7,,1/7,,2/8,
{8}8b/2b,3/7,3/7,4/6,2/8,{32}1x,2,3,4,7x,6,5,4,1x,2,3,4,
8x,7,6,5,1x,2,3,4,1x,2,3,4,8x,1,2,3,8x,7,6,5,8x,1,2,3,8x,7,6,5,8x,1,2,3,
{16}6bx,4x,6x,4x,5x,3x,5x,3x,2/6,2b/6b,,3/5,,2/6,,1/7,
,2/8,,3/7,,4/6,,2b/8b,2x/8x,2bx/8bx,,3/7,,4/6,,3/5,
,2/6,{8}2b/6b,3b/7b,4b/8b,{4}C,{32}6b/2b-6b[8:1],3/7,4/8,5/1,6-2[8:1],7,8,1,
{1}2b/6b`Cf,
E
