&title=傷つき傷つけ痛くて辛い
&artist=トゲナシトゲアリ
&first=0
&des=absqrt.
&lv_5=14
&inote_5=(150)
{1},
{4}1,,1,,1,,1,,
{8}1/D7,,,B6,1,,B5,,1,B4,,,1/D4,,,,
{8}1/B7,,,C,1,,B3,,1h[2:1],,,,,{16}2,6,3,5,3,,
{16}6,5,,A8,,,2,1,,3,5,,D2f,,,,
{16}7/5,6,,7/4,6,,7/3,6,,,2,8,3h[4:1],,,,
{8}5^8[8:1],4,5/3,2,1v6[8:1],2,1/3,4,
{8}5-2[8:1],6,7/5,8,1v4[8:1],8,7/1,,
{8}6pp8[8:1],5,6/4,3,2-5[8:1],1,8/2,7,
{8}6^1[8:1],5x,4/6,3,2v5[8:1],1,8/2,,
{8}6,6,6/5,6/5,5/4,5/4,4/3,4/3,
{8}2/4,2/4,1/8,1/8,7-3[8:1]/5,6,3b/7b,,
{16}2,4,4,2,8,8,2,5,5,2,7,7,3h[8:1],,,,
{16}4/7,6,,3/7,6,,2/7,6,,,1h[8:1],5,,,B5,,
{16}2/4,,3h[8:1],,5,,4,4,,6/5,,7,7,,4,4,,7/5,,8,8,,3,3,,7/4,,8,8,,2^5[4:1],,
{8}5,5^8[4:1],,8,,4^1[4:1],4,1^6[4:1],1,6^3[4:1],,3^8[4:1],,8,,5,
{16},,6/4,,4,,7,7,,6/5,,4,4,,7,7,,5/4,,3,3,,8,8,,6/5,,3,3,,8,,
{8}2^5[8:1],,6v1[8:1],,3p7[8:1],,5-8[8:1],,2^7[8:1],,6qq4[8:1],,
{8}1-5[8:1],8,1/5x,6,
{16}7,,4h[8:1],,6,,3,3,,5/4,,6,6,,3,3,,8,8,,7/4,,6,6,,2,2,5,5,,7/1,,
{8}6-1[8:1],4,6,3,2pp4[8:1],8,2-6[8:1],7,2,5^8[8:1],,5q1[8:1]*v2[8:1],,5^8[8:1],,5,
{16},,3/5,,5,,2,2h[16:9],,,4,,6,,8,,,,7/5,,5,,8,8h[16:9],,,6,,4,,2,,
{8}1-5[8:1],5,1,6,7^4[8:1],2,7pp3[2:1],3,7,,,5>8[16:6],,,6-4[8:1],,
{8}6-8[8:1],8,6,1,6h[8:3],A2,B3,,4-2[8:1],7,4,8,4h[8:3],A1,B8,,
{8}7-5[8:1],3,7,2,7h[8:3],A1,B2,A3,4-2[8:1],6,4-6[8:1],7,4-1[8:1]*-7[8:1],,4,,
{8}8/2,8/2,2/4,2/4,5/4,5/4,7/5,7/5,7/1,7/1,1/2,1/2,2/4,2/4,6/4,6/4,
{16}2,5,3,5,3,5,3,5,1,6,4,6,4,6,
{16}3h[8:1],,5,,6/4,7,,5/3,2^5[8:1],,,,2/5,,6,,7h[8:1],,
{16}8b,7,8,7,8,7,5,7,5,7,5,7,1,7,1,7,1,7,1,7,1,7,3,6,4,6,4,6,2,7,1,7,
{16}8b,6,8,6,8,6,5,6,5,6,5,6,2,7,1,7,2b,5,4,5,4,5,1,4,3,4,3,4,2,5,1,6,
{8}8^3[8:1],7,6/8,5^8[8:1],4,3/5,2^5[8:1],1,8/2,8,7/6,5,4pp6[8:1],3,2/4,1,
{16}8b,7,8,7,8,7,8,7,8,7,8,7,8,7,8,7,
{16}2b,8,1,8,1,8,1,8,3b,1,2,1,2,1,2,1,
{8}8b>3qq6[2:1]/3bh[8:7],,,,,,,,
{8}8hx[8:7]/A4,,,,,A5,B3,C,
{8}A6/2hx[4:3],,,,,A4,E7,,
{16}8/2,3,,7/2,3,,6/2,3,,2/5,3,,4z8[16:6],,5,,6,,,,,,,,
{16}7,1,7,1,6/2x,,3,,
{8}5b/4b^1[8:1],6,7V53[4:1]/4,{16}8,8,,1,,2,2,,5/1,,
{8}6-1[8:1],7,6/2^5[8:1],3,2-6[8:1],8,2-5[8:1],7,
{8}2-6[8:1]/6x^1[8:1],,2-7[8:1]/6,,2x-6[8:1]/6^3[8:1],,2/6^1[8:1],,
{8}6xq2[8:1],3,6^1[8:1],,6/4qq2[8:1],,4b/5b,6,
{16}7-4[8:1]/3,,4,4,,,3,,7^4[8:1]/2,,4,4,,,3,,
{16}8-4[8:1]/2,,4,4,,,3,,2^7[8:1],,7,,2pp6[2:1],,6,,
{8}2/5,,,7,7h[4:1],,5^8[8:1],4,
{8}5p1[8:1]/3,,7-4[8:1]/5,,7/8^5[8:1],,8b/2b,3,
{16}4-8[8:1],,6,6,,,5,,4-8[8:1]/1,,2,2,,,3,,
{16}4-8b[8:1]/8x,,7,7,,,5,,4-8b[8:1]/8x,,1,1,,,3,,
{16}4p8b[8:1]/8x,,8,8,,,6,,4q8b[8:1]/8x,,8,8,,,2,,
{16}4^1[16:3],,,1^6[16:3],,,6pp3[2:1],,,,5,,,,4,,
{16}4^7[8:1],,,,4/2,,3-8[8:1],,,7,3,,6,,6,,
{16}5^8[16:3],,,8^3[16:3],,,3qq6[2:1],,,,4,,,,5,,
{8}5^2[8:1],,7/5,8,8^5[8:1],,8/1,2,
{16}3b-8[16:1],,,4b-7[16:1],,,1b-5[16:1],,,,8h[4:1],,,,4,,
{8}6/2,4>6pp2<6pp3>6pp4b[8:27],,5h[8:27]/4b,,,,,
{1},,,
{8}3^8[8:1],4,5/3,6,7v4[8:1],8,7/1,2,
{8}3^6[8:1],2,1/3,8,7^2[8:1],6,7/5,4,
{8}3v8[8:1],2,5^8[8:1]/3,6,1-5[8:1]/5,2,8p4[8:1]/1,7,
{8}8/3-7[8:1],2,5q1[8:1]/3,6,5/4qq2[8:1],3,6/4,7,
{8}8^5[8:1],1,8/2,3,4v7[8:1],3,4/2,1,
{8}8^3[8:1],7,8/6,5,4-1[8:1],5,6/4,7,
{8}8-5[8:1],7,8/2q6[8:1],3,7-4[8:1]/2,8,1/7,2h[8:1],
{16}6b-1[16:1],,,3b-8[16:1],,,5b-8[16:1],,,,1h[4:1],,,,5,,
{8}7/3,7/3,6/2,6/2,5/1,5/1,8/4,8/4,7/3,7/3,6/2,6/2,5-1b[8:1]/1,2,5b/3b,,
{16}3,4,,A1,,,7,8,,6,4,,7,8,6,1,
{16}2/4,3,,2/5,3,,2/6,3,,,5h[8:1],1,,,B1,,A6/A4,,,,,,,,E
