&title=Arcana Eden
&artist=Team Grimoire vs Sakuzyo vs Laur
&first=0
&des=In_Cyan
&des_5=In_Cyan
&lv_5=14+
&inote_5=(211){4},,,,{1}Ch[4:3],
{4}6,5,4,{8}3,3h[8:1],
{4}6h[4:1],5h[4:1],4h[4:1],3h[4:1],
7,5h[4:1],{8}4h[4:1],,,7,
{2}8p2>5[2:1],1h[32:15],
{32}8/2,3/7,{16}6h[16:23]/4-8<6-2>4[16:15],{1},{4},{8},{2}3,
{32}7,6/8,5/1,2h[32:45]/4-6>7[16:15],{1},{4},{16},,{2}5,
{32}2,3/1,8/4,7/5qq1[32:13],{4},,,{16},,{32}7,
8/6,5/1,4h[32:13]/2qq6[32:13],{4},,,{16},,{32}8,
7/1,2/6,3h[32:13]/5pp1[32:13],{4},,,{16},,{32}2,
3/1,8/4,5/7qq4[16:9],{4},,,{16},,{1}2w6[2:3],
{4},,,,E7,
E8,E1,{8}E2,E6,
{4}E3/E5,E4,E7/E6,E8,
{2}1-4-8[2:1],8-5-2[2:1],
2V48[2:1],7h[2:1],
{1}Ch[4:1],
Ch[4:1],
{32}1/8pp7-1>6>1[0.2844##6.2559],2/7,3/6,5/4pp3-5<2<5[0.2844##6.1493],{1},,,{4},,{16},,{4},
,,,,,,,,{1}A8/B8/B4/A4/E4/E5/E1/E8/D5/D4/D1/D8/Ch[16:1],
{4},,,,7-5[8:1],
{8}8/7,2>5[8:1],,2,1,8-4[8:1],
,8,{4}3h[8:1],{12}2,4,3,5,{6}2h[6:1],
{12}7,5,6,4,{6}8h[6:1],{12}2,6,4,8,{6}2h[24:7],
{24},,,{8}3q7[8:1],1,3,2>5[8:1],1,{4}2/8w4[8:1],
8,2/6<1[8:1],{8},3-5[8:1],5-1[8:1],3,
,8,8,{16}3,4,,6,{8}5,{16}3,6,2,7,
{4}1s5[8:1]/8z4[8:1],8/1,{16}2h[16:3],,,5,{8}3h[8:1],{16}6,4h[16:3],
,,{8}7,{4}8/1,{16}3,4,,4,{8}3,2/5<8[8:1],
{16},,,,3h[8:1],,,6,{8}6h[8:1],5,4/8v5[8:1],2,
{16},,,,6h[8:1],,,3,{8}3h[8:1],4,{4}5/1h[8:1],
{16}7,5,6,5,{8}7h[8:1],{16}2,4,3,4,{8}2h[8:1],{16}7,5,6,5,
{8}8h[8:1],{16}2,4,3,4,{8}2h[8:1],{16}7,5,,2,{4}4w8[8:1],
{16},,,,6-4[8:1],2,6,2,{4}6,8/1,
{8}5h[8:1],{16}7,4h[8:1],,6,{8}3h[8:1],{4}5w1[8:1],5,
{8}3x/7x,{16}6,5,,5,{8}7h[8:1],2x,{16}3,4,,4,{8}2h[8:1],
8x,{16}7,5,,5,{8}6h[8:1],1x,{16}2,4,,3,{8}4h[8:1],
{4}1b-5[8:1]*-6[8:1],1,{8}8h[8:1],{16}2,7h[8:1],,3,{8}6h[8:1],
{4}4b>1[8:1]*-8[8:1],4,{8}2h[8:1],{16}5,3h[8:1],,6,{8}4h[#0.1421814],
{4}7w3[8:1],7b,{16}6,1h[8:1],,5,{8}2h[8:1],4,
{4}3,{8}7/4,{16}6,5,{8}7,3/4,{16}2,1,{8}3h[8:1],
{4}4v1[8:1]*q8[8:1],4,{16}2b/6b,,,5,3,4,{8}2b,
{16}6,6,5,7,{4}4bh[4:1],{16}7,5,6,4,5,3,4,2,
{4}3b-7[8:1],5b-8[8:1]*-2[8:1],5b,{8}3b/7b,{16}2,4,
{8}3h[8:1],8b,{16}6,5,{8}7,4/2b,5/3b,6/4b,5b/7h[8:1],
{16}8b,1,2,3,1,2,3,4,2,3,4,5,3,4,5,6,
{4}1b>4[8:1],1,{16}7h[8:1]/5h[8:1],,,6h[8:1]/5h[8:1],,,{8}5/4,
{16}2,7,1,8,2,7,{8}1h[8:1],{4}7-5[8:1],{16}7b,,,2,
,,{8}4/3,4/3,2h[8:1],4h[8:1],5h[8:1],{4}7bh[4:1],
{16}8,1,{8}2h[8:3],{24}3,4,5,6,7,8,{4}1b<6[8:1],{8}1/2,3h[8:3],
,4,{4}5b>2[8:1],{8}5/6,7h[4:1],,8,
{4}1/6,{8}2b/5b,{16}3,4,{8}3,8b/1b,{16}6,5,{8}7,
2b/4b,{16}3,5,4xh[8:1],,,5xh[8:1]/6xh[8:1],,,{8}7xh[8:1]/5xh[8:1],{16},,,,5-1[8:1],
8,5,8,{4}5<8[8:1],{16}5/2-6[8:1],,,1,{8}2,7,
{4}3b-1[8:1]/8b-4[8:1],3/8<5[8:1],{16}8/3-7[8:1],,,4,{4}3,
1b/5b,{24}7/1h[12:1],6,{48}5,,,,,2/8h[12:1],,3,,4,,,,,{24}7/2h[12:1],6,5,{48},,,,,,{16}3,4,
{8}2/5,8,{4}3bpp6[2:1]/7bpp2[2:1],{16},,,,,,,,,,,,2b-4[16:1],
,,1b-5[16:1],,,{8}8b-4[16:1],{16},7b-5[16:1],,,{4}3b,
{16}2b-4[16:1],,,1b-5[16:1],,,{8}8b-4[16:1],{16},7b-5[16:1],,,{4}3b,
{16}2b-4[16:1],,,1b-5[16:1],,,{8}8b-4[16:1],{16},7b-5[16:1],,,{8}3x,
3x,{4}2xh[16:3],2xh[16:3],2xh[16:3],
2xh[8:1],7<4[8:1],7/3v6[8:1],7>2[8:1],
7/4-8[8:1],3-1[8:1]/4-6[8:1],3,{8}7<4[8:1],{16}8,1,
{4}7,2>5[8:1],2/6v3[8:1],6/2<7[8:1],
2/5-1[8:1],6-8[8:1]/5-3[8:1],6/5,{16}2>5[8:1],1,,1,
{4}2,8w4[8:1],8,2-6[8:1]/6<1[8:1],
2-4[8:1],2/5-1[8:1]*<8[8:1],5,2-6[8:1],
2/6,{8}8,{16}3,4,{4}5/2h[4:1],{16}6,5,{8}4/7h[8:3],
{4}1,{32}1,2,3,4h[32:5],,,,,1,2,3,4h[32:5],,,,,8,7,6,5h[32:5],,,,,8,
7,6,5h[32:5],,,,,{4}E3/B3/E4/A3/D3,{8}2bh[8:1],{16}5,3bh[8:1],,6,{8}4bh[8:1],
{16}7,5bh[8:1],{8}8,7bh[8:1],{16}1,6bh[8:1],,3,4,2bh[8:1],,7b,5,6bh[16:1],
3b-7[8:1],4b,3b,4b,{4}3b>2<1<8<7<6>5>4-6v8-2[2:3],,,,,,,,Ch[4:1]/3qq8[4:5],
,,,,,,,Ch[4:1]/7qq4[4:5],
{2},
{4},,,,,Ch[4:1]/4-6>8[4:5],
{2},
{4},,,,,Ch[4:1]/5-3<1[4:5],
,,,,,,,3h[2:1],
2-6[4:1],2,
,6h[2:1],5q3[2:1],5,
,8h[2:1],2pp1[2:1],2,
,5h[2:1],7-3[4:1],7,
{8},,3,3,6,5,4,3,
6,6,2,2,1,3,3,6,
5,7,{4}Ch[4:1],,,,Ch[4:1]/B6h[4:1]/B7h[4:1]/E7h[4:1]/B3h[4:1]/B2h[4:1]/E3h[4:1],
,8b/1b,
{16},,,,2,4,3,5,4,6,5,7,{4}6b-2[8:1],
6,{16}7,5,6,4,5,3,4,2,{4}3b-7[8:1],
3,{16}3,4,1,8,5,7,4,6,{8}3b-1[8:1],8h,
,8h,{16}6,5,8,1,4,2,5,3,{12}6b-8[8:1],,1,
,1,{48},,,,{16}4,3,5,2,6,1,8,7,{12}2bh[6:1],,4h[6:1],
,5h[6:1],,7,6,7,6,7,6,7bh[6:1],,5h[6:1],
,4h[6:1],{48},,,,{16}2,3,2,3,2,3,2,3,{20}2h[10:1],,4h[10:1],,3h[10:1],
,5h[10:1],,4h[10:1],{140},,,,,,,{28}6,,6,,6,,6,,6,,6,,6,,{4}7b/5b,
B5/A5/E5/B7/E8/A7,{16}1/6h[8:1],2,3,4,1,2,3,4,1b/5h[16:3],,,3,
,,2,4,3,5h[16:5],,1b,,,{8}1b,{16}8,5,7,4,
6,3,5,2,{4}4-8[8:1],4-6[8:1]/1-3[8:1],4/1w5[8:1],
1,8/2h[8:1],{16}7,3,6,4,{4}5bh[2:1],
1,{32}2bqq7[8:5],3,{16}4,,,{4}2/6,4,
5,2/6bxqq3[8:5],6,8,
{8}1,1,2/4,3,7/5,6,1/4,2,
8/5,7,{16}3,6,4,5,3>6[4:1],6,4,5,{4}3,
,8x-5-2-7-4-1-6[1:2],,,,,,,,6xV42v5>8[2:3]*V82v7>4[2:3],
,,,,,,,5h[8:1]/7h[8:1],
7h[8:1]/5h[8:1],8h[8:1]/4h[8:1],
{16}7,7,5,6,{4}4h[8:1]/2h[8:1],2h[8:1]/4h[8:1],1h[8:1]/5h[8:1],
{16},1/8,2/7,3/6,{4}5-3-1-7-5-1[0.5687##0.8531]/4-6-8-2-4-8[0.5687##0.8531],,4/5,
,,,{64}8b/1b,E1f/B8/B1,E8/E2/B7/B2,E7/E3/Ch[64:1],E4/E6/B6/B3,E5/B5/B4,{32}A5/A4,,,,,,,,,,,,,{16}2,
4,3,4,{8}2h[8:1],1,7/4h[8:1],6,
2/5h[8:1],3,8/4,{16}7,4,6,3,5,2,{8}4h[8:1],{16}1,5h[8:1],
,8,{8}6h[8:1],{32}1x,2,3,4,,,1x,2,3,4,,,1x,2,3,4h[32:5],,,,,{8}8,
7/5,6h[8:1],{16}2,4,2,5,4,7,5,7,{32}3,2,1,8,7,6,5,4,
{4}3/7h[4:1],{8}1>4[8:1],{16}2,8,{8}1,6-8[8:1],5-1[8:1],6,
5,7,{16}2b,4,{8}3h[8:1],{16}6b,5,{8}7h[8:1],{16}2b,1,{8}3h[8:1],
{16}7b,6,{8}8h[8:1],5-1[8:1],3-8[8:1],5,3,7b,6b/4b,
5b/3b,4b/2b,{16}7,6,5,4,1,2,3,4,{32}7,6,5,4,3,2,1,8,
{4}7/3h[4:1],{8}8,{16}6,4,{8}5-1[8:1],1<6[8:1],5,2,
3-7[8:1],2,3/4-8[8:1],5,4/2-6[8:1],1,2,7,
{16}8,1,2,3,4/1>4[8:1],,,8,{8}1,6,{16}7bh[8:1]/5bh[8:1],,,5bh[8:1]/4bh[8:1],
,,{8}4b/2b,1-5[8:1],2,1/7-3[8:1],6,7/2,2,
{16}8,1,8,1,7b-4[16:1],,,5b-1[16:1],,,{8}8b,{4}8bh[4:1],
1b,{16}2b-5[16:1],,,4b-8[16:1],,,{8}1b,{4}1bh[4:1],
7,{16}6,5,7,5,6,4,{8}7h[8:1],{16}2,4,3,4,
{8}2h[8:1],7,{16}5,7,5,6,{32}1,2,3,4,8,7,6,5,{8}1h[8:1],4,
{32}6,5,3,2,6,5,3,2,{4}7h[1:2],{1},{4},,,{12}E4,
,E3,,E2,,E1,,E8,
,E7,,A6,,A7,,A8,,A1,,A2,
,A3,{96},,,,,,,,{32}7qq8[2:1],6/8,5/1,4/2h[32:5],,,,,,,,,,,,,,,,,{8}3x,
{32},,,,,,,,2pp1[2:1],3/1,4/8,5/7h[32:5],,,,,,,,,,,,,,,,,{8}6x,
,,8/1,{24}6,5,6,5,6,5,6,{48},{16}5,{12}7,4,6,
{8}5,1h[8:1]/8h[8:1],{24},,,,4,3,4,3,4,3,{48},{16}4,{12}2,5,3,
{8}4,1/8,{12}6/2-4[6:1],,4-1[6:1],,1-5[6:1],,5>1[6:1],,7,
,8,,7-5[6:1],,5-8[6:1],,8-4[6:1],,4<8[6:1],,2,
,1,,2,2,2,{16}3,1,4,8,5,7,{8}5h[8:1],
{4}6,{8}8/7,8/7,1/6,5/2,3/4,8/1,
{24},,,,,,{12}8h[6:1],{24},,2,3,{12}4,7,7h[6:1],{24}2,3,{6}4,
{24}3,4,{12}5,7,{24}7,5,7,5,7,5,,,,2,4,2,4,2,{12}4,3h[6:1],
,5,,6/2,,5h[6:1],,2,,2,,3h[6:1],
,4h[6:1],,{4}5h[4:1],7h[4:1],6h[2:1],
{32}2h[4:1],,,,,,,,,1/5h,8/4h,7/3h,6/2h,5/1h,{16}4/8z4[16:25],{1},{4},,{1}2-6[8:1],
E
