&title=Ascension to Heaven
&artist=xi
&first=-0.05
&des=HL送U上天堂
&lv_5=14+
&lv_6=15+
&inote_5=(200)
{1},,
{4}4h[4:8],,,,,,,,5h[4:4],,,,4,,,,3h[4:8],,,,,,,,2h[4:4],,,,1h[4:1],
{16}8,7,6,5,4,3,2,7,6,5,4,3,2x,,
{16}2,1,2,,7,8,7,,1,8,1,8,,3,4,3,4,3h[16:2],,6,5,6,5,6h[16:2],,
1,8,2,7,1,8,,2,1,2,,5,4,5,,,7,5,7,5,7h[16:2],,1,8,1,8,1,8,
{16}B7,B5,B3,B1,E8,E6,E4,E2,,
{16}7,8,7,,2,1,2,,8,1,8,1,,6,5,6,5,6h[16:2],,3,4,3,4,3h[16:2],,
8,1,7,2,8,1,,7,8,7,,5,4,5,4,,2,4,2,4,2h[16:2],,,
{8}8,1,
{12}2q3[16:6],3,4,{16}5h,6,7,{24}8h,1,2,,,,{32},,
{16}B8,B7,B1,B6,B8,B7,E2,E6,B8,B7,B1,B6,B8,B7,E2,E6,B8,B7,B1,B6,B8,B7,E2,E6,B8,B7,B1,B6,B8,B7,E2,E6,
E3,E7,B4,B5,B3,B6,B4,B5,E3,E7,B4,B5,B3,B6,B4,B5,E3,E7,B4,B5,B3,B6,B4,B5,E3,E7,B4,B5,B3,B6,,,
2x,1,2,1,2,1,2,1,3,8,3,8,3,8,3,8,5x,6,4,7,3,8,4x,5,3,6,2,7,3x,4,2,5,1x,6,1,8,1,8,1,8,1,8,1,8,1,8,1,8,
{24}1x,2,3,4,5,6,7,8,1,2,3,4x/8x,7,6,5,4,3,2,1,8,7,6,5,,
{16}2x,1x,2,1,2,1,2,1,2,4,2,4,2,4,2,4,3,5,3,5,3,5,3,5,4,6,4,6,4,6,4,,
{16}7,8,7,8,7,8,7,8,7,5,7,5,7,5,7,5,6,4,6,4,6,4,6,4,5,3,5,3,5,3,5,,
{16}1,8,1,8,1,8,1,8,2,7,2,7,2,7,2,7,1,8,1,8,1,8,1,8,2,7,2,7,2,7,2,7,
{16}3,6,3,6,3,6,3,6,4,5,4,5,4,5,4,5,4x,3x,2x,1x,
{24}B3,B4,B5,B6,B7,B8,B1,A4,A5,A6,A7,A8,A1f,,,,,,
{16}3,5,3,6,3,7,3,8,3,1,3,2,3,4,3,5,
{16}3,6,2,6,1,6,8,6,7,6,5,6,4,6,3,6,
{16}4,6,4,7,4,8,4,1,4,2,4,3,4,5,4,6,
{16}4,7,3,7,2,7,1,7,8,7,6,7,5,7,4,7,
{16}2x,3,4,5,2x,3,4,5,1x,2,3,4,1x,2,3,4,1x,8,2,7,3,6,8x,7,1,6,2,5,
{16}3x,6,2,7,1x,8,
{16}1,2,3,4,5,6,7,8,4,3,2,1,8,7,
{24}6x,5x,6x,5x,6x,5x,6x,5x,6x,5x,6x,5x,
{16}4,3,2,1,8,7,6,5,
{16}3,4,3,4,2,4,2,4,2,4,2,5,2,6,2,7,2,2,1,1,8,8,7,7,6,6,5,5,4,4,3,3,
{16}2,1,3,8,4,7,5,6,3,4,2,5,1,6,8,7,1,1,5,5,2,2,6,6,3,3,7,7,4,4,8,8,
{16}1,2,3,4,5,6,7,8,1/5,6,7,8,1,2,3,4,5/7,8,1,2,3,4,5,6,7/3,4,5,6,7,8,1/5,,
{16}6x,B6,2x,B2,7x,B7,3x,B3,6x,B6,2x,B2,7x,B7,3x,B3,
{24}7x,6,5,8x,7,6,1x,8,7,2x,1,8,3x,2,1,4x,3,2,5x,4,3,6x,5x,4,
{1}3xq4[4:7]/6xp5[4:7],,,
{4}B4,B6,B8,B2,
{8}1,1,8,8,,,1,8s4[8:5],
{1},5h[1:1],
{4}4,,3,,
{8}2,2,1,1,,,2,1-4v5-1[8:5],
{4},,,,7,,8,,1,,2,,
{8}3,3,6,6,,,4,5V38[8:5]*-8[8:5],
{1},
{4}6,,4,,2,,8,,
{8}6,6,2,2h[8:5],
{4},,4h[4:4],,,,6h[4:4],,,,B4,B3,B2,B1,
{8}8,7,8,7h[8:3],,,6,6p3[8:5],
{4},,,,8V62[8:4]/1V37[8:4],,,,5V36[4:2],,1,,
{4}3h[8:4],,4h[8:4],,
{6}5,,6,{4},7,8q1[8:4],,,,4q5[8:4],,C,,
{8}1h[8:4],,,,E2,E3,E4,E2,E3,E4,E2,B3,B5,
{8}E2,B3,B5,B3,E6,B8,B3,E6,B8,B4,E7,B1,B4,E7,B1,E6,B8,E4,,
{16}1x,2,3,4,5,,,,,1h[16:1],8h[16:1],1h[16:1],8h[16:1],2x,2x,7x,7,,
{8},3,4,5,2,3,4,
{12}1h[12:9]/E6,,B7,,E1,,B2,,,E4,,,
{16}5x,6,7,8,
{32}1x,2,3,4,5,6,7,8,
{32}1,2,3,4,5,6,7,8,1,2,3,4x/8x,,,,,
{16}2,6,2,6,2,6,2,6,3,7,3,7,3,7,3,7,4,8,4,8,4,8,4,8,5,1,5,1,5,1,5,1,
{16}4,3,2,1,8,7,6,5,4,3,2,1,8,7,6,5,1,2,3,4,8,1,2,3,7,8,1,2,6,7,8,1,
{16}3,4,3,5,3,6,3,7,3,8,2,8,1,8,7,8,6,8,5,8,4,7,4,6,4,5,4,3,4,2,4,1,
{24}8x,7,6,5,4,3,2,1,8,7,6,5,
{16}2,3,4,5,6,7,8,1x,5,1,5,2,4,2,4,,7,5,7,5,7,5,7,,
{16}2,3,5,6,2,3,5,6,3,4,6,7,3,4,6,7,1,2,5,6,1,2,5,6,2,3,6,7,2,3,6,7,
{16}5,7,5,7,4,6,4,6,3,5,3,5,2,4,2,4,1,8,2,7,1,8,2,7,3,6,4,5,3,6,4,5,
{16}4,3,2,1,4,3,2,1,4,3,2,1,4,3,2,1,8,7,6,5,8,7,6,5,8,7,6,5,8,7,6,5,
{24}8x,1,2,3,4,5,6,7,8,1,2,3,
{16}6,7,8,1,2,3,4,5,3,7,3,7,2,8,2,8,1b,1b,1b,1b,1b,1b,1b,1b,
{16}3x,4x,3,5,3,6,3,7,3,4,3,5,3,6,3,7,3,4,3,5,3,6,3,7,3,4,3,5,3,6,3,7,
{16}1,8,1,8,2,7,2,7,3,6,3,6,4,5,4,5,1,2,3,4,5,6,7,8,15,2,3,4,5,6,7,8,
{16}1,2,5,6,1,2,5,6,1,2,3,4,5,6,7,8,1x/5x,4,3,2,1,8,7x/2x,3,4,5,6,7x/C,8,1,2,,
{24}8x,7,6,5,4,3,2,1,8,7,6,5,{16}1,2,3,4,8,7,6,5,2,3,6,5,2,3,6,5,
{16}1,2,3,4,5,6,7,8,
{16}1x,8,1,7,1,6,1,5,1,8,1,7,1,6,1,5,
1,8,1,7,1,6,1,5,1,8,1,7,1,6,1,5,
{16}1,2,3,4,8,1,2,3,7,8,1,2,6,7,8,1,
4x,5,6,7,8,1,2,3,4,51,6,7,8,1,2,3,
4x,5,4,5,3,6,3,6,4,5,4,5,3,6,3,6,
4x,5,4,5,2,7,2,7,4,5,4,5,2,7,2,7,
{16}3,8,2,7,1,6,1,6,3,8,2,7,1,6,1,6,
{24}1x,2,3,4,5,6,1x,2,3,4,5,6,
{32}5x/1x,2,3,4,5,6,7,8,1x,2,3,4,5,6,7,8,
{4}1xq3[4:6]/5xq7[4:6],,,,,,,,4p2[4:6]/8p6[4:6],,,,,,,,
{1}7p4[4:3],3qq5[4:3],6pp3[4:3],
{4}2,1,8,7,
{1}6qq3[4:5]*q1[4:5],,
(190)
{1}8,
{16}1,,,,,,2,3,4,5,6,7,8,1,2,3,4/5w1[4:17]*-1[4:17],
&inote_6=(200)
{1},,
{4}4h[4:8],,,,,,,,5h[4:4],,,,4,,,,3h[4:8],,,,,,,,2h[4:4],,,,1h[4:1],
{16}8,7,6,5,4,3,2,1,84,73,62,51,4x/8x,,
{16}6,5,6,,3,4,3,,5,4,5,4,,7,8,7,8,7h[16:2],,2,1,2,1,2h[16:2],,
5,4,6,3,5,4,,6,5,6,,1,8,1,,,3,1,3,1,3h[16:2],,5,4,5,4,5,4,
{16}B3,B1,B7,B5,E4,E2,E8,E6,,
{16}3,4,3,,6,5,6,,4,5,4,5,,2,1,2,1,2h[16:2],,7,8,7,8,7h[16:2],,
4,5,3,6,4,5,,3,4,3,,1,8,1,8,,6,8,6,8,6h[16:2],,,
{8}8,1,
{12}2q3[100#12:1],3,4,{16}5,6,7,{24}8,1,2,,,,{32},,
{16}
B8,4,B1,5,B7,3,B2,6,B8,4,B1,5,B7,3,B2,6,B8,4,B1,5,B7,3,B2,6,
B5,1,B4,8,B6,2,B3,7,B5,1,B4,8,B6,2,B3,7,B5,1,B4,8,B6,2,B3,7,
2x,1,2,1,2,1,2,1,3,8,3,8,3,8,3,8,4,5,6,7,8,1,2,3,4,3,2,1,8,7,6,5,2,3,4,5,4,3,2,3,4,5,4,3,2,3,4,5,4,3,2,3,4,5,4,3,2,3,4,5,4,3,2,,
{24}1x,2x,3,4,5,6,7,8,1,2,3,4x/8x,7,6,5,4,3,2,1,8,7,6,5,,
{16}2x,8,2,8,2,8,2,8,1,8,1,8,1,8,1,8,3,5,3,5,3,5,3,5,4,6,4,6,4,6,4,,
{16}7,8,7,8,7,8,7,8,7,5,7,5,7,5,7,5,6,4,6,4,6,4,6,4,5,3,5,3,5,3,5,,
{16}1,2,3,4,5,6,7,8,1b/5,26,37,48,5,6,7,8,1/5b,26,37,48,5,6,7,8,1b/5,26,37,48,5,6,7,8,
{16}3,6,3,6,3,6,3,6,4,5,4,5,4,5,4,5,4x,3x,2x,1x,
{24}B8,B7,B6,B5,B4,B3,B2,B1,E8,E7,E6,E5,E4,E3,E2,E1,E8,,
{32}3x,B3/C,{16}5,{32}3x,B3/C,{16}6,{32}3x,B3/C,{16}7,{32}3x,B3/C,{16}8,{32}3x,B3/C,{16}1,{32}3x,B3/C,{16}2,{32}3x,B3/C,{16}4,{32}3x,B3/C,{16}5,
{16}3x,{32}6x,B6/C,{16}2,{32}6x,B6/C,{16}1,{32}6x,B6/C,{16}8,{32}6x,B6/C,{16}7,{32}6x,B6/C,{16}5,{32}6x,B6/C,{16}4,{32}6x,B6/C,{16}3,{16}6x,
{16}4,6x,4,7,4,8,4,1,4,2,4,3,4,5,4,6,
{16}4,7,3,7,2,7,1,7,8,7,6,7,5,7,4,7,
{16}2x,3,4,5,2x,3,4,5,1x,2,3,4,1x,2,3,4,1x,8,2,7,3,6,8,7,1,6,2,5,
{16}3,6,2,7,1,8,
{16}1,2,3,4,5,6,7,8,4,3,2,1,8,7,
{24}6x,B7,B1,5x,E4,E3,6x,B7,B1,5x,E4,E3,
{16}E2,E1,E8,E7,E6,E5,E4,E3,
{16}1,8,1,8,2,4,2,4,2,4,2,5,2,6,2,7,2x/6x,2x/6x,3x/7x,3x/7x,8x/4x,8x/4x,7x/3x,7x/3x,2x/6x,2x/6x,1x/5x,1x/5x,4x/8x,4x/8x,1x/5x,1x/5x,
{16}2x,1x,3,8,4,7,5,6,3,4,2,5,1,6,8,7,1x/5x,1x/5x,1x/5x,1x/5x,2x/6x,2x/6x,2x/6x,2x/6x,3x/7x,3x/7x,3x/7x,3x/7x,4x/8x,4x/8x,4x/8x,4x/8x,
{16}1,2,3,4,5,6,7,8,1/5,6,7,8,1,2,3,4,5/7,8,1,2,3,4,5,6,7/3,4,5,6,7,8,1/5,,
{16}6x,{32}B6,Cf,{16}2x,{32}B2,Cf,{16}7x,{32}B7,Cf,{16}3x,{32}B3,Cf,{16}6x,{32}B6,Cf,{16}2x,{32}B2,Cf,{16}7x,{32}B7,Cf,{16}3x,{32}Cf,E1,
{32}7x,6,5,4,8x,7,6,5,1x,8,7,6,2x,1,8,7,3x,2,1,8,4x,3,2,1,5x,4,3,2,{24}6x,5x,4,
{4}3xq4[25#200:12]/6xp5[25#200:12],E8/B8/B1/E2,E7/B6/B5,E8/B8/B1/E2,E3/B3/B4,E8/B8/B1/E2,E7/B6/B5,E8/B8/B1/E2,E3/B3/B4,,,,
{4}B4,B6,B8,B2,
{8}1,1,8,8,,,1,8s4[8:5],
{1},5h[1:1],
{4}4,,3,,
{8}2,2,1,1,,,2,1q6[8:5],
{4},,,,7,,8,,1,,2,,
{8}3,3,6,6,,,4,5V38[8:5],
{1},
{4}6,,4,,2,,8,,
{8}6,6,2,2h[8:5],
{4},,4h[4:4],,,,6h[4:4],,,,B4,B3,B2,B1,
{8}8,7,8,7h[8:3],,,6,6p3[8:5],
{4},,,,8V64[8:4]/1V35[8:4],,,,5V37[4:2],,1,,
{4}3h[8:4],,4h[8:4],,
{6}5,,6,{4},7,8q1[8:4],,,,4q5[8:4],,C,,
{8}1h[8:4],,,,8,8,8,7,7,7,6,6,6,
{8}54,54,54,23,23,23,18,18,18,67,67,67,E8/B7/B8,E8/B7/B8,E8/B7/B8,E6/B6/B5,E6/B6/B5,E6/B6/B5,,
{16}1x,2,37,4,5,,,,,1h[16:1],8h[16:1],1h[16:1],8h[16:1],2,2,7,7,,
{16},,2,3,4,5,6,72,3,4,5,6,,,
{8}1h[8:6]/E6,E7,
{12},,E8,{8}E1,B2,,B4,
{16}5x,6,7,8,
{32}1x,2,3,4,5,6,7,8,1,2,3,4,5,6,7,8,15,26,37,4x/8x,,,,,
{16}2,6,2,6,2,6,2,6,3,7,3,7,3,7,3,7,4,8,4,8,4,8,4,8,5,1,5,1,5,1,5,1,
{16}4,3,2,1,8,7,6,5,48,3,2,1,8,7,6,5,1,2,3,4,5,6,7,8,15,2,3,4,5,6,7,8,
{16}1,8,1,8,1,8,1,8,3,6,3,6,3,6,3,6,2,5,2,5,2,5,2,5,1,4,1,4,1,4,1,4,
{24}1x,8,7,6,5,4,3,2,1,8,7,6,
{16}15,4,3,2,1,8,7,6,5,1,2,3,4,5,6,7,84,1,2,3,4,5,6,7,
{16}2,3,5,6,2,3,5,6,3,4,6,7,3,4,6,7,1,2,5,6,1,2,5,6,2,3,6,7,2,3,6,7,
{16}5,7,5,7,4,6,4,6,3,5,3,5,2,4,2,4,1,8,2,7,1,8,2,7,3,6,4,5,3,6,74,,
{16}2,1,8,7,6,7,8,1,2,1,8,7,6,7,8,1/3,4,5,6,7,6,5,4,3,4,5,6,7,6,5,4,3,
{24}8x,1,2,3,4,5,6,7,8,1,2,3,
{16}6,7,8,1,2,3,4,5,3,7,3,7,2,8,2,8,{16}1b,1b,1b,1b,1b,1b,1b,1b,
{16}3x,4x,3,5,3,6,3,7,3,4,3,5,3,6,3,7,3,4,3,5,3,6,3,7,3,4,3,5,3,6,3,7,
{16}1,8,1,8,2,7,2,7,3,6,3,6,4,5,4,5,1,2,3,4,5,6,7,8,15,2,37,4,51,6,7,8,
{16}1,2,5,6,1,2,5,6,1/5x,2,3,4,51,6,7,8,1x/5x,4,3,2,1,8,7x/2x,3,4,5,6,7x/C,8,1,2,,
{24}8,7,6,5,4,3,2,1,8,7,6,5,{16}1,2,3,4,8,7,6,5,2,3,6,5,2,3,6,5,
{16}1,2,3,4,5,6,7,8,
{16}1x,8,1,7,1,3,1,4,1,8,1,7,1,3,1,4,
1x/B1,8x/B8,7x/B7,6x/B6,5x/B5,4x/B4,3x/B3,,1,8,1,3,1,7,1,4,
{16}1,2,3,4,58,1,2,3,74,8,1,2,63,7,8,1,
24,5,6,7,8,15,2,3,4,51,6,7,8,1,2,3,
4x,5,3,6,4,5,2,7,4,5,3,6,4,5,2,7,
{24}1x,2,3,8,7,6,2x,3,4,7x,6,5,1x,2,3,8x,7,6,2x,3,4,7x,6,5,
{64}3x,E4,B4,,7x,E8,B8,,3x,E4,B4,,7x,E8,B8,,3x,E4,B4,,7x,E8,B8,,3x,E4,B4,,7x,E8,B8,,
3x,E4,B4,,7x,E8,B8,,3x,E4,B4,,7x,E8,B8,,3x,E4,B4,,7x,E8,B8,,3x,E4,B4,,,,,,
{32}5,6,7,8,1,2,3,4,5,6,7,8,1,2,3,4,
{48}5x/1x,2,3,4,5,6,7,8,1,2,3,4,5,6,7,8,1,2,3,4,5,6,7,8,
{4}1xq3[25#16:3]/5xq7[25#16:3],,,,,,,,1b/5b,,,,,,,,
{1}7p4[2:1],3qq5[2:1],6pp3[2:1],
{4}2,1,8,7,
{1}6qq3[4:5],,
(190)
{1}3,
{16}4,,,,,,4,8,3,7,2,6,15,2/6x,
{16}37,48,5w1[4:17]*-1[4:17]/1b,
