&title=WWW
&artist=HIMEHINA
&first=0
&des=Samuii
&lv_5=13+
&inote_5=(146)
{8}
,,,,,,7h[8:6]/C,,B1,,B2,,B3,,E7/B7/B6/3h[8:6],,B8,,B7,,B6,18,7/2h[8:2],,C,7h[8:6],1h[8:1],,2h[8:1],,3h[8:1],,4h[8:4],,E3/B2/B3,,E7/B7/B6,,
18,,
{16}2,1,2,,7,8,7,,1,,1,,3,4,3,,6,5,6,,45,,45,,45,,26,,4h[8:1]/8h[8:2],,,,1h[8:1],,2h[8:1],,3h[8:1],,4h[8:1],,5h[8:1],,6h[8:1],,1,8,1,8,1,8,
{32}1x,2x,3x,,8x,7x,6x,,
{48}2x,3x,4x,,,,8x,7x,6x,
{48}E3,B3,B4,,E7,B6,B5,,,
{16},,,,,,1,1,1-6b[8:1]*-4[8:1],,37,,1,,,,
{8}3h[8:1],,3h[8:1],,2h[8:1],,2h[8:1],,
{16}7h[8:1],,1,8,2h[8:1],,,,6h[8:1],,4,5,3h[8:1],,,,7h[8:1],,5,6,4h[8:1],,,,6h[8:1],,8,7,1h[8:1],,6h[8:1],,,2,5h[8:1],,4h[8:1],,,,E8/E2,,B7/B2,,B6/B3,,E6/E4,,
{32}4x/5x,E5,C,B8/B1/E1,,,,,
{16}
E8/E6,,,,E2/E4,,,,58,,,,1>4[8:1]/4>1[8:1],,,,,,,,6>3[8:1],,3<6[8:1],,,,,,1b,,,,4-1[8:1],,4-7[8:1],,4],,4,,,,1x/7x,,,,8w4[8:1],17,26,,8-3>1[8:2]*-5<7[8:2],,
{8},,,,1>4[8:1],,1<6[8:1],,1,3-7[8:1],,3b,,
{16}6-8-4[8:2],5,7,,1>3[8:1],,,,1,,7-4[8:1]*-3[8:1],8,6,,7>2[8:1],,,,7-5[8:1],,,,7,,4<7[8:1]*>1[8:1],,,,4bpp4[8:2]*qq4[8:2],
,,,,,,,,,1-7[8:1],,4,4,1-3[8:1],,6,6,1b,,,,
4,5,3,,7-3[8:1]/2-5[8:1],,3>8[8:1],,72,,,,Chf[8:1],,,,8-4[8:1],1,7,,8/2-6[8:1],,1,,2/7-3b[8:1],,8,,2<8[8:1]/7,,,,2,,7-3[8:1]*-3[8:1],6,5,,7bx,,,,1-5[8:1],,,,1b/8,7,6,,1-5[8:1],,,,1b/8,7,6,,,,
{8}A2f,,6,,6,,6,,6/E1,,6,,6,,6,,Cf/3,,3,,3,,3,,B7/3,,3,,E1/3,,3,,
7/C,7,7,7,2/C,2,2,2,5/B8/E1/B1,5,5,5,
{16}3/C,,,7/B1,B2,B3,B4,,18,,3,7,1,,45,,2,1,2,,45,,45,,17,,6,4,8,,8,,1,,,37,,,1>5-1[8:6]/5<1-5[8:6],,,,
{8},,,,,,,,
{32}1,2,3,,,,8,7,6,,,,2,3,4,,,,7,6,5,,,,1,2,3,,
{16}7-5-1[8:2],,7,,8,,1,,2-4-8[8:2],,2,,1,,8,,7-5v4-2b[8:3],,,,
{8},,,,1>4[8:1]*<6[8:1],,1-5[8:1],,1-3[8:1],7,1-6[8:1],5,1,
{16}8-4[8:1],,,,1-6[8:1]/8,2,3-8[8:1],,1,,3,,,,
7-1[8:1],,5,6,4>1[8:1]/7,,3,,4-6-4[8:2]/7-2-7[8:2],,6,,47,,,,,,
8h[8:1],,,,2-5[8:1],8,1,,2/7-3[8:1],,8-4[8:1],,7V53b[8:1],,8,,7,,,,2-4-8[16:3],,5,,6,,,,7-5-1[16:3],,4,,3,,,,2-4-1[8:2],,2,,1,,8,,7-5-8[8:2],,7,,8,,
1x-5[8:1],,,,1x,,1x-5b[8:1],,,,1>4>1[8:8],,,,1,,,,6,,6,,6,,7,,7,,8,,8,,
8-6[8:1],,,,2-4[8:1]/8-4[8:1],,1,,28,,,8,,,
2-5[8:1],,,,8<6[8:1]/2,,1,,8/2,3,4,,,,
2-5[8:1],,5,6,7-4[8:1]/2,,8,,7-2-7[8:2]/2-5-2[8:2],,1,,27,,,,,,
1h[8:1],,,,8-4[8:1],7,6,,8/2>4[8:1],,
1,,2/8,7,6,,,,
{12}1-5[8:1],8,2,1b,,,8-4b[8:1],1,7,8b,,,7,5,6,1-3[8:1],7,3-5-1[8:2],
{8}1,,E3,B3f,,
45,34,23,1-5b[8:1]/2,,1/7-5v4-2[8:6],7,,,,,,,,,
7b/B2/B3/E3f,,
{16}2/C,,7/B1,,4/B6,,,3,4-8[8:1],2,5,,4,,,2,1-5[8:1],3,8,,1>3[8:1]*<7[8:1],,,,1b-4[8:1]*-6[8:1],,,,1b,,,,B3,,B2,,B1,,5-2-7[8:2],4,6,,5,,,,,,
28,,,,3-7[8:1],4,3,2,3b>8[8:1]*<6[8:1],,,,3b,,,,,,
1,8,2-5[8:1]/7-3[8:1],,,,27,,,,,,,,
18,,,,6>3[8:1],,,,
{32}3<6[8:1],2x,1x,,,,,,B1,B2,E3f,,,,,,
{16},,,,4V28[8:2],,35,,4,,,,,,86,,13,,45,,7qq4[16:5]/8pp3[16:5],,16,,78,,,,Cf,,,,
2-6[8:1]/7,,1,,2/7-3[8:1],,8,,2-4[8:1]/7,,1,,2-8[8:1]/7-3-7[8:2],,,,
7-5-1[8:2]/2,,,,B2,,B3,,B4,,B8/B7/E8,,B8/B7/E8,,,,
1-3[8:1]*-3[8:1],,1-7[8:1],,1-5b[8:1],,1,,1,,,,3-8[8:1]/7-3[8:1],,26,,3<7[8:2]/7,,,,
1,,1,,2,,3,,4b,,,,
3-8[8:1]/6,,4,,3/6-1[8:1],,5,,3-7[8:1]/6-2[8:1],,4,,36,,,,
1>3[8:1],,3<5[8:1],,5<7[8:1],,7<1b[8:2],,1,,8,,7-3-1-5[8:3],,,,,,,,,,
E2f,,,,,,,,1b/5b,,3b/7b,,4b/8b,,2bv5[8:1]/6bv1[8:1],,3b/7b,,6b>3[8:1]/2b<7[8:1],,,,6xw2[8:10]/2x,,,,
{4},,,,,,
{16}
3-8[8:1],4,2,5,3,7,7,1,8,2,4,3,6-1[8:1],5,7,2,6,3,3,8,2,1,2,8h[16:1],5,6,5,8,3,5,4,7h[16:1],1w5[8:1],8,2,7,,,,,A6/B2,,,,2h[8:1],,8,8,2,6,4-8[16:18],,,,7,1,8,2,5,3,6,4,7,2,4-8b[8:1],3,6,1,4,,,,,,B1,,B2,,,,1>4[8:1]/3,,,,18,,,,1,2,1,2,1v4-7[8:2],2,1,2,1,,,,
1z5-8s4b[8:12],,,,
{8},,,,,,,,,,,,,,
1-4b[8:3]/4-1b[8:3],,,,,,,
3-1-5b[8:2]/6-8-4b[8:2],,36,,,1x<5b[16:2]/3x-7b[16:2],,31,,1xz5[8:3]/8xs4[8:3],,
,,,,,5-8[8:3]/8-5[8:3],,,,,,,,,4-1-5[8:3]/8-5-1[8:3],,,,,,,3-7[8:4]/4-1-6[8:4],,,,,,,,,,,3,5,2-7[8:1],,5,5<8[8:1],,1V36[8:4],,,,,,,,,
6,4,5<8[8:1]*<8[8:1],,1,1>4[8:1]*>4[8:1],,7-2[8:1]*-2[8:1],,3-6[8:1]*-6[8:1],,5-8-3[8:3]*-8-3[8:3],,,,,
4,4,46,4,42,4,47,4,43,4,4>1[8:1]/8-6[8:1],,,,
{16}2,1,2,,7,8,7,,3,4,3,,6,5,6,,1,8,1,7,1,6,1,5,1-5[8:1],,,,1,,,,
27,,,,1-5[8:1],,5-1[8:1],,1,,,,,,8<4[8:1],,2h[8:1],,,,,,2-4[8:1],,8,,7-5[8:1],,1,,2,,
C,,,,,,4>1[8:1],,1>4[8:1],,,,,,8,,8<5[8:1],,,,,,4,,6,,3,,7,,2,,
{32}8/B8,Cf,,,,,,,
{8}B1,,B2,,B3,,B5,,B6,,B7,,B8,45,3/6h[8:2],,C,2h[8:4],5h[8:1],,6h[8:1],,
{16}1,,,E7/B7/B6,,,E3/B2/B3,,8,,,,E7/B7/B6/E3/B2/B3,,,,18,,,,
{16}2,1,2,,7,8,7,,18,,18,,3,4,3,,6,5,6,,45,,45,,45,,26,,4h[8:1]/8h[8:2],,,,1h[8:1],,2h[8:1],,3h[8:1],,4h[8:1],,5h[8:1],,6h[8:1],,1,8,3,6,1,8,2,7,
{32}1b,2,3,4,5,6,7,8,1,2,3,4,5,6,7,8,1w5[8:1]/5,,,,,,,,
{16}1>4[8:1]*<6[8:1],,,,1,,,,E8/B7/B6/E6/C/E2/B2/B3/E4,,,,
{32}2>5[8:1],1x,8x,7x,,,,,2b/1b,8,7,6,,,,,7<4[8:1],8x,1x,2x,,,,,7b/8b,,,,
2h[8:1],,,,,,,,8-6[8:1],,,,3-5[8:1],,,,8,,,,3,,,,,,,,
7,6,5,4,3,2,1,8,7-3[8:1],,,,,,,,1s5>4z8[8:2]/7,,,,,,,,
{16}B5/B4/E5,,,,,,
6h[8:1],,,,2-5[8:1],,5-2[8:1],,2-7[8:1],,7>4[8:2],,5v8b[8:1],,,,,,,,
2>5[16:3],,1,,8,,,,7<4[16:3],,8,,1,,,,2-6[8:1],,6>2[8:2],,2,,8,,7,,6,,5,,
1x-5[8:1],,,,1x,,1x-5b[8:1],,,,1>4>1[8:8],,,,1,,,,6,,6,,6,,7,,7,,8,,8,,
8-6[8:1],,,,3-6-3[8:2]/8-2-8[8:2],,2,,38,,,,,,
8hx[8:1],,,,4-7[8:1],,1-5[8:1],,4,,1,,,,
8-4[8:1],1,2,3,8/4,,,,7-2-7[8:2]/3-6-3[8:2],,2,,37,,,,,,
1h[8:1],,,,8-4[8:1]/2,7,6,,8/1,2,3-7[8:1],,8,,3,,,,
{12}7-4[8:1]/2,1,8,27,,,3-8[8:1]/6,4,5,36,,,
1,3,2,8,6,7,1>5-1[8:2]/5<1-5[8:2],,,,,,
{8},86,13,45,
{16}27,,,3,4,,
{32}1>8[8:4]/8<1[8:4],27,36,45,,,,,,,,,
{8},,,,,,
{32}E1/E5,B1/B5,B2/B6,B3/B7,,,,,
{16}
C,,,,46,,3,,46,,1,,46,,,,18,,,,6,,35,,7,,35,,8,,2v5[8:1]/6v1[8:1],,37,,26,,,,
7v4[8:1]/3v8[8:1],,62,,73,,,,1w5[8:1],,37,,1,,,,1>4[8:1]/8<5[8:1],,27,,18,,E8/B7/B6/E6/Cf/E2/B2/B3/E4,,,,
{16}
1,,1,,6,5,6,,2,,8,,4-1>3[8:2],5,3,6,4,,
7,,7,,1-5[8:1],8,2,,1,,6-1[8:1],,6,,2-4[8:1],,2,,8-4[8:1],,8,,3>1[8:1],,3,,5-7[8:1],,5,,8>3[8:1],,8,,7-5[8:1],,7V13[8:1],,7,,7,,,,,,
{48}E6/E4,B6/B3/C,B7/B2,E8/E2,,,,,,,,,,,,,,,,,,,,,
E,
