&title=祝你今年金拱门
&artist=蔡国庆
&first=0
&des=HoSHiYADO
&lv_5=13
&inote_5=(130)
{1},
{8},,
6bV84[8:8]/3bV15[8:8],,,,,,,,,
{8},,,,,
2h[8:6]/4h[8:6],,,,,,,,
6h[8:6]/5h[8:6],,,,,,,,
1h[8:6]/7h[8:6],,,,,,,,
2h[8:2]/8h[8:2],,,,
3/4-1[8:1],,45,,
7-5[8:1],,78,,2-4[8:1],,21,,
7<4[8:1],,78,,2>5[8:1],,21,,
7/8-4[8:1],,18,,1-5[8:1]/2,,81,,
64,6h[8:1]/4h[8:1],,78,6bv4[8:1]/1bv4[8:1],,,,
{16}5h[16:3]/2,,,2,
3h[8:1]/4,,4,,52,,,,
6-4[8:1],,6,,1-3[8:1],,,1,7-5[8:1],,7,,2-4[8:1]*-8[8:1],,,,2,,,,
{16}4h[16:3]/7,,,7,
6h[8:1]/5,,5,,47,,,,
3-5[8:1],,3,,8-6[8:1],,,8,2-4[8:1],,2,,7-5[8:1]*-1[8:1],,,,7,,,,
{4}2q3[8:2]/4<1[8:2],,,
{8}82,7,
{16}1/6h[16:3],,,2,
{8}73,84,1<6[8:1]/5>2[8:1],,,,
{16}5h[8:4]/1b,,,1,2b,,2b,,1b,,,,
{8}68,7,13,2,45,36,2-4[8:1]/7-5[8:1],,,,
{16}5h[16:3]/2,,,2,
3h[8:1]/4,,4,,52,,,,
6-4[8:1],,6,,1-3[8:1],,2,,7-5[8:1],,6,,1-3[8:1]*-7[8:1],,,,1,,,,
{4}7p6[8:2]/5>8[8:2],,,
{8}17,2,
{16}8/3h[16:2],,7,,
{8}26,15,8>3[8:1]/4<7[8:1],,,,
{16}4h[8:4]/8b,,,8,7b,,7b,,8b-3[8:1],,,,8b/2,,,,
51,,,2,37,,15,,3-8[8:1]/7-4[8:1],,,,,,,,
7p3[8:1],,,7,2q6[8:1],,2,,8,,,,
{8}71,6,45,63,18,27,5-8[8:1]/4-1[8:1],,45,,
{16}
2b>5[8:1],,,1,2,,8,,1-5[8:1],,8,,71,,,,
7<4[8:1],,,8,7,,1,,8-4[8:1],,1,,28,,,,
2-4[8:1],,,8h[16:1],2,,8,,
1-3[8:1],,,7h[16:1],1,,7,,
8-2[8:1],,,6h[16:1],8,,6,,
8>3[8:1]*<5[8:1],,,,,,,,
7<4[8:1],,,8,7,,1,,8-4[8:1],,1,,28,,,,
2>5[8:1],,,1,2,,8,,1-5[8:1],,8,,71,,,,
6bV84[8:2]/3bV15[8:2],,,,,,,,,,,,72,,8,8,
1,,72,,45,,36,,7-4[8:1]/2-5[8:1],,,,72,,,,
7b<4[8:1],,,8,7,,1,,8-4[8:1],,1,,28,,,,
2>5[8:1],,,1,2,,8,,1-5[8:1],,8,,71,,,,
7-5[8:1],,,1h[16:1],7,,1,,
8-6[8:1],,,2h[16:1],8,,2,,
1-7[8:1],,,3h[16:1],1,,3,,
1<6[8:1]*>4[8:1],,,,,,,,
2>5[8:1],,,1,2,,8,,1-5[8:1],,8,,71,,,,
7<4[8:1],,,8,7,,1,,8-4[8:1],,1,,28,,,,
61,,,7,82,,3,,45,,63,,2h[8:1]/7h[8:1],,,,
81,,27,,54,,72,,6bV84[8:1]/3bV15[8:1],,27,,3b/6b,,,,
7-4[8:1],,,7,1-5[8:1],,1,,8w4[8:1],,8,,8b,,,,
15,,3qq8[8:6]/7qq4[8:6],,,,,,,,,,,,,,,,,,,,
{16}45,54,
{8}54,27,6bV84[8:2]/3bV15[8:2],81,6b/3b,,,,,,,,,5x-1[8:3],,,,,A1f,,,,,,,,,,E
