&title=メフィスト
&artist=女王蜂
&first=0
&des=月读
&lv_5=13
&inote_5=(114){1},
(113){16}8<1[16:12]/4h[2:3],,,,,,,,,,,,,,,,
(114){16},,,,,,,,,,,,,,,,
(115){16}3h[2:1]/6h[1:1],,,,,,,,,,,,,,,,
(114){16}4,,,,3,,,,2,,,,1-5[64:1],,,{32},,
(115){16},,,,,,,,,,,,,,,,
(114){16},,,,,,,,,,,,,,,,
(113){16},,,,,,,,,,,,,,,,
(111){16}24,,,35,,,46,,7<1[4:1],,,,1,,,,
(100){24},,
(150)
{16}3,,3,,5h[8:2],,,,4-2[8:1],,,,8,,7,,
{16}1-5[8:1]/6,,,,6,,6h[8:2],,,,4,,3,,24,,
{16}1,,1,,7h[8:2],,,,8-4[8:1],,,,6,,7,,
{16}3-1[8:1]/8,,,,5,,5h[8:2],,,,3,,4,,57,,
{16}6,,6,,4h[8:2],,,,5-7[8:1],,,,1,,2,,
{16}8-4[8:1]/3,,,,3,,3h[8:2],,,,5,,6,,75,,
{16}8,,8,,2h[8:2],,,,1-5[8:1],,,,3,,2,,
{16}6-8[8:1]/1,,,,4,,4,,1/3,,3,,8/2,,2,,
{16}1s5[4:5]/6h[1:2],,,,,,,,,,,,,,,,
{16},,,,,,,,,,,,,,,,
{16}1-4[8:1],,,,8,,8,,1-4[8:1],,,,2,,,,
{16}1-4[8:1],,,,8,,,,1-4[8:1],,,,3,,3,,
{16}5h[8:2]/1,,,,3,,6,,4>7[4:1],,,,7,,,,
{16}6-1[8:1],,,,2v5[8:1],,,,8h[4:1],,,,4-1[8:1],,4,,
{16}6,,,,5-8[8:1],,5,,3,,,,2,,,,
{16}1-4[8:1]/8-5[8:1],,,,,,,,36,,2,,15,,6,,
{16}3/7^5[8:1],,,,3,,2,,1pp1[16:5],,,,6,,,,
{16}8qq8[16:5],,,,3,,,,3^1[8:1],,,,7,,6,,
{16}5-8[8:1],,,,4,,4,,5-8[8:1],,,,6,,,,
{16}5-8[8:1],,,,4,,,,5-8[8:1],,,,7,,7,,
{16}1h[8:2]/5,,,,7,,2,,8<3[4:1],,,,3,,,,
{16}1-5[8:1],,,,7-3[8:1]/1,,,,7/4,,,,2-5[8:1],,2,,
{16}8,,,,7-4[8:1],,7,,1,,,,3,,3V15[8:2],,
{16},,5,,6,,7V51[8:2],,,,1,,2,,3,,
{16}84,,3,,26,,7,,84,,3,,2,5,2,5,
{16}1>5[4:1],,,,5<1[4:1],,,,1>5[4:1],,,,5,,,,
{16}8,,8,,1-5[8:1]/7-3[8:1],,,,17,,,,46,,3,,
{16}2V46[4:1]/8,,,,6,,7,,8h[8:2],,,,5,,4,,
{16}7v4[8:1]/3-8[8:1],,,,37,,,,15,,3,4,2,,6,5,
{16}7>3[4:1],,,,3<7[4:1],,,,7>3[4:1],,,,3,,,,
{16}4pp4[16:5]*qq3[16:4],,,,4,,,,,,,,25,,6,,
{16}47,,3-1[8:1],,3,,5-7[8:1],,5,,8-4[8:1],,8,,1p6[8:5]*pp5[8:5],,
{1}1b,
{16}4h[4:1],,,,6,,6,,7h[4:1]/5,,,,8^3[8:1],,,,
{16}8b/4^7[8:1],,,,1-4[8:1]/4b,,,,5-2[8:1]/1b-6[8:1],,,,5b/1b,,,,
{16}1,,1,,8-4[8:1],,7,,6pp5[16:5],,,,3,,,,
{16}1,,1,,8-4[8:1],,7,,6pp5[16:5],,,,3,,3,,
{16}2h[8:2],,,,6,,6,,7h[4:1]/5,,,,1>4[8:1],,,,
{16}1b^6[8:1]/5,,,,1b-4[8:1]/5,,,,1b-6[8:1]/5-1[8:1],,,,1b/5b,,,,
{16}2,,2,,7-5[8:1],,8,,1V35[4:1],,,,6,,,,
{16}7,,7,,4h[8:2],,,,8,,3,,26,,7,,
{16}8V64[4:1]/4,,,,4,,3,,2h[4:1],,,,1^6[8:1],,,,
{16}1b/5^2[8:1],,,,8-5[8:1]/5b,,,,4-7[8:1]/8b-3[8:1],,,,4b/8b,,,,
{16}8,,8,,1^6[8:1],,2,,3q5[16:5],,,,5,,,,
{16}8,,8,,1^6[8:1],,2,,3q5[16:5],,,,5,,5,,
{16}7h[8:2],,,,3,,3,,2h[4:1]/4,,,,8<5[8:1],,,,
{16}8b^3[8:1]/4b,,,,8b-5[8:1]/4b,,,,8b^3[8:1]/4b^7[8:1],,,,8b/4bw8[8:7],,,,
{1},
{16},,35,,35,,26,,26,,17,,
{16}1/7h[4:1],,,,
{1}1z5[8:10]*s5[8:10],
{1},
{1}3z7[8:10],
{1},
{1}6pp5[8:4],
{1}3qq4[8:4],
{1}7qq1[8:10]/2pp8[8:10],
{8},,,,,,4-8[64:1],,
{16},,,,,,,,,,,,,,,,
{16}6<4[4:2],,,,,,,,,,,,,,,,
{16}37,,,,46,,,,5v2v4v1b[2:5]*v8v6v1b[2:5],,,,,,,,,,,,,,,,,
