&title=The Encounter Code
&artist=technoplanet
&first=2.12
&des=合作だよ
&des_5=
&lv_5=14
&inote_5=(212)
{1}
{8}4h[1:2],,,6h[8:13],,,,,,,,,,,,,
{6},,A7,A6,A5,{12}A4,A3,A2,A1,A8,A7,A6,A5,{24}D4,D6,E4,E6,B3,B6,E3,E7,B2,B7,A2,A7,
{4}Cf/E2/E8,,,,,,,{8},3,4,5,6<3[4:3],,,,,,5h[1:1],,,,,,,,
{8}6,,8,8h[4:1],,3,83,,46,,7,7h[4:1],,1,{16}17,6,5,4,
{8}3xh[64:1],,2,2h[4:1],,5,52,,34,,1,1h[4:1],,7,{16}71,2,3,4,
{8}5b,,6,6h[4:1],,4,46,,3,7,2,8h[4:1]/2,,1,1,7,
{8}6x/5x,,2,2h[4:1],,4,24,,{24}5bs1[53#4:1]/1xb,D1,A8,D8,A7,D7,A6,D6,A5,D5,A4,D4,A3,D3,A2,D2,A1,D1,A8,D8,A7,D7,A6,D6,
{4}1w5b[53#64:6],,,,
{16}
,,,,,,,,,,,,
1,2,3,4,56,,,,{8}7,8h[16:4],,3h[16:4],,1h[16:4],,5h[16:4],,7-4[8:1],,2h,2x,,3-5[8:1],,3,7h[16:4],,6h[16:4],,5q2[12:3],,,,3,,1,2,8,
1>4[6:1],,,6,6,5,7,3,8<5[6:1],1,2,4,,3,4-8[8:1],,2b/4b,,1,1h[16:4],,8h[16:4],,7-4[8:1],,5,3,1>4[8:1],,1,{16}5,6,7,8,
1p5[8:1]/5,,,,{8}4,3-1[8:1],,3V57[16:4],,3,,2,,1h[16:4],,8,6-8[8:1],5,4-2[8:1],,4,1-5[8:1],,1-7[8:1]*-6[8:1],,1b-3[8:1]*-4[8:1],,1b-5[8:1],,1b,,7<4[8:1],4,7,
{24}3b,2,1,8-4[8:1],7,6,,,,{8}8b,,3,5,26,,8,1,3/7-5[8:1],,7,4-8[8:1],2,{4}4bqq6[12:9],,7,,8<1[12:9],,2,,
{4}5pp2[8:10],,,,,,,,
{16}3,,,,4,,5,,,,6h[16:6],,,,,,
{8}2h[8:6],,,,4h[8:2],,,,
{8}3^6[4:1],,,,8,,,
{8}7,,8-5[4:1]/1,,,2,,,,
{8}2-5[4:1]/6,,,,C,,,
{8}8,,7-3[6:1]/3,,,2^7[4:1],,,,
{8}4>5[8:21],,,,,,,,,,,,,,,,4^2[8:5],,,,,,,,,,
{8}7h[4:1],,6h[4:1],,5-1[8:1],,3b,,
{16}28,,2,,74,,7,,36,,3,,25,,1,,26,,7,,
{16}2,8,2,8,2-6b[8:1],1,2,1,2b,,,,,,,,
{16}5b-3[8:1]*^8[8:1]/7b,,,,,,,,
{16}2b/E1,,,6b/C,,,3b/E5,,1bs5b[8:1]/8b,,,,,,,,
{16}3b/7b-3[8:1],,,,1/7,,2-5-1[4:1],,,,5,,,,7q3b[8:1],,,,4qq5[16:5],,,,5,,,,6,,7,,8,,8bp4[8:1]/2b,,,,8/3,,2-6b[8:1],,,,1^6[8:1]/2,,,,4^1[8:1],,,,5pp3[16:5],,,,8,,,,1,,2b,,,,
{16}3-5b[16:2]/7,,,6,,,8,,7-3[8:1],,,3,,,2,,
{16}2V48[16:4]b/6,,,5,,,8,,7V15[16:4],,,1,,,2,,
{16}3h[4:1],,,,,,,,
{16}13,8,7,6,4,3,2,1,5b-7[8:1]*-8[8:1]/8,,,,5b-3[8:1]*-2[8:1],,,,5b-1[8:1],,,,5b,,,,
{16}3/7h[8:2],,,,2,,2h[8:2]/5,,,,4,,,,8h[8:2],,,,5,,,,17,,,,56,,45,,34,,
{16}1-5[8:1]/6,,,,18,,7^2[8:1],,,,5,,4^7[6:1],,3,,1pp6[16:5],,,,,,8,,
{16}8-5[8:1],,,,
{16}2-6b[8:1],,,,4q8[8:1],,,,7,,1-4[8:1],,,,7-3b[8:1],,,,5p1[8:1],,,,8,,7,,6,,,,8-3[8:1],,4-8[8:1],,8,,4<2[12:5],,,,,,,,3,,,,5,6,7,8,1b-3[8:1]*-4[8:1]/4,,,,1b-7[8:1]*-6[8:1],,,,1b-5[8:1],,,,1b,,,,8<1[1:3]*q1[1:3],,,,,,,,,,,,,,,,,,,,,,,,,,,,,,,,,,,,,,,,,,,,,,,,,,,,,,,,,,,,,,5<4[12:17],,4q5[12:15],,,,,,,,,,,,,,,,,,,,,,,,,,,,,,,,7h[16:4],,,,4h[16:4],,,,5h[16:2],,3h[16:4],,,,1h[16:6],,,,,,8h[16:4],,,,7h[16:4],,,,5b,,,,4b/6b,,2b/5b<8[16:3],,,,5,,2,3,4,5,1,2,3,4,8,1,2,3,7,8,1,2,6,7,8,1,4b,,,,3b/8b,,1b>4[16:3]/7b,,,,1,,6,7,8,1,5,6,7,8,3,4,5,6,1,2,3,4,8,7,6,5,3,4,3,4,
{12}3h[12:2],,2h[12:2],,1,,6h[12:2],,7h[12:2],,8,,
4h[12:2],,2h[12:2],,3,,8h[12:2],,5h[12:2],,6,,
{8}4>1[7:1],,5,,6<1[7:1],,8,,2v5[7:1],,4,,6-8[8:1],,3,,1q5[8:1]/2-4[8:1],,12,,8p4[8:1]/7-5[8:1],,87,,1>4[8:1],6,1,7,8,5,{16}7,1,6,2,
{12}4,4,3,5,4,6,5,5,7,4,6,3,4,4,2,5,1,6,8,8,7,5,1,4,
{16}8,7,6,5,2,3,4,5,1,2,3,4,15,26,37,48,{8}1b-5[8:1]/5b-1[7:1],,,,2b/6b,,
{16}34,,,,
{8}1xbh[4:1]/6x,,7,7-3[8:1],,2-5[8:1],,62,,8^5[8:1]*^3[8:1],,8,,B5,B3,,
17,,24,4h[4:1],,6>1[8:3],,7h[2:1],,,,,,7,1>6[8:3],8,
8,,,7,7,,56,,5,6,3,4h[4:1],,1,1x,,
8/7x,,7h[64:1],5,7h[64:1],4,7h[64:1],3^8[8:1],,3,5,5,,{16}1b,,4,5,6,7,
{8}8xbh[4:1]/3x,,2,2-6[8:1],,7-4[8:1],,37,,1^4[8:1]*^6[8:1],,1,,5,6,2,
8-4[8:1],,1,1h[4:1],,3-7[8:1],3,1b^4b[8:1],,8b-5[8:1]*-3[8:1],,8b,,6,7,8,
{24}2b/1x,3,4,{8}5/7xh[4:1],,{24}5bx,4,3,{8}2,8x,8,1h[4:1],,7,3,5h[4:1],,4,6,3,
{12}7xh,1,7,2,4,4,3xh,5,3,6,6,4,{12}3/5b,,2b/1,,7b/8b,,{8}5xw1[8:1],,
5b/A7/B7/Cf/B3/A3,,
{16}
2>6[16:3],,,,28,,1qq2[8:3],,,,1,,,,4,,
,,3-7[8:1],,,,3,,,,2,,18,,7h[8:1],,
6-2[8:1],,,,6b,,8pp7[8:3],,,,8,,,,
5,,,,6pp2[16:6],,,,6,,,,3,,3,,4,,
6b,,3,4,2,,8,,4b,,6,5,7,,3,,
1b,,2,8,1,,6,,5b,,8,4,6,,3,,
2>6[16:3]/7h[8:5],,,,,,,,{24}8,1,2,3,4,5,6,7,8,1,2,3,
{16}4/8b<5[8:1],,,,8b>3[8:1]/2,,,,8b-4[8:1]/6,,,,8b,,,,
3V15[4:2],,,,,,,,6h[4:1],,,,,,4b/7b,,
,,1b/2b,,,,7b/8b,,,,5b/6b,,4b/5b,,3b/4b,,
1b-5[8:1]/8b-4[8:1],,,,1b/8b,,,,3v8[8:1],,7-4[8:1],,3,,7,,
1,,2,4,3,,6,5,7,,7h[16:1],,7h[16:1]/8h[16:1],,6h[16:1]/1h[16:1],,
2>7[8:3],,,,,,7,,8,,1-5[8:1],,,,1,,
,,4,,35,,2/6h[4:1],,,,5,,46,,37,,
8<3[16:3]/2h[8:5],,,,,,,,{24}1,8,7,6,5,4,3,2,1,8,7,6,
{16}5b/2b<7[8:1],,,,2b/4-8[8:1],,,,4b/1w5[8:1],,,,1b,,,,
{12}3,2,1,6,7,8,2,3,4,8,7,6,3,4,2,4,3,6,5,5,7,3,3,5,
2,3,4,15,6,7,48,1,2,37,4,5,7,7,4,5,5,2,4,3,6,{16}4,5,4,5,
4>1[4:1],,,,,,,,7<4[4:1],,,,,,,,
8V24[16:5],,,,,,,,6-2[4:1],,,,,,,,5qq1[4:15]*pp1[4:15],,,,,,,,,,
