&title=RENDA JOCKEY
&artist=ルゼ
&first=-0.555
&des=MeowHell(14.5)
&lv_5=14
&des_5=
&inote_5=
(185){4},,,,,,,,{1}5bh[1:3],
{2},,,,4,
8-5>3[4:1],
{16}2xh[16:3],,,1h[16:3],,,{8}8h[4:1],{16},7h[16:3],,,{4}6,
{16}2xh[16:3],,,3h[16:3],,,{8}4h[4:1],{16},5h[16:3],,,{4}6,
{8}5x/3x,3,3,3,5x/6x,6,6,6,
{16}1x,8,1,8,2x,7,2,7,3,6,4,5,3,6,4,5,
{1}4bh[2:3],
{2}5x<1v4[4:1],Cf,
{16}1b,2,3,4,5x,6,7,8,1x,2,3,4,5x,6,7,8,
1x,2,3,4,5x,6,7,8,1x,2,3,4,5x,6,7,8,
1x,2,3,4,5x,6,7,8,1x,2,3,4,5x,6,7,8,
1x,2,3,4,5x,6,7,8,1x,2,3,4,5x,6,7,8,
1x,2,3,4,5x,6,7,8,1x,2,3,4,5x,6,7,8,
1x,2,3,4,5x,6,7,8,1x,2,3,4,5x,6,7,8,
1x,2,3,4,5x,6,7,8,1x,2,3,4,5x,6,7,8,
1x,2,3,4,5x,6,7,8,1x,2,3,4,5x,6,7x,8x,
1x/5b,4,3,2,1x,8,7,6,5x,4,3,2,1x,8,7,6,
5x,4,3,2,1x,8,7,6,5x,4,3,2,1x,8,7,6,
5x,4,3,2,1x,8,7,6,5x,4,3,2,1x,8,7,6,
5x,4,3,2,1x,8,7,6,5x,4,3,2,1x,8,7,6,
5x,4,3,2,1x,8,7,6,5x,4,3,2,1x,8,7,6,
5x,4,3,2,1x,8,7,6,5x,4,3,2,1x,8,7,6,
5x,4,3,2,1x,8,7,6,5x,4,3,2,1x,8,7,6,
5x,4,3,2,1x,8,7,6,5x,4,3,2,1x,8x,7x,6x,
1b/5xh,2,3,4,5x,6,7,8,1x/5xh,2,3,4,5x,6,7,8,
1x/5xh,2,3,4,5x,6,7,8,1x/5xh,2,3,4,5x,6,7,8,
1x/5xh,2,3,4,5x,6,7,8,1x/5xh,2,3,4,5x,6,7,8,
1x/5xh,2,3,4,5x,6,7,8,1x/5xh,2,3,4,5x,6,7,8,
5x/1xh,4,3,2,1x,8,7,6,5x/1xh,4,3,2,1x,8,7,6,
5x/1xh,4,3,2,1x,8,7,6,5x/1xh,4,3,2,1x,8,7,6,
5x/1xh,4,3,2,1x,8,7,6,5x/1xh,4,3,2,1x,8,7,6,
5x/1xh,4,3,2,1x,8,7,6,5x/1xh,4,3,2,1x,8,7x,6x,
1b/5xh,2,3,4,5x/1xh,6,7,8,1x/5xh,2,3,4,5x/1xh,6,7,8,
1x/5xh,2,3,4,5x/1xh,6,7,8,1x/5xh,2,3,4,5x/1xh,6,7,8,
5x/1xh,4,3,2,1x/5xh,8,7,6,5x/1xh,4,3,2,1x/5xh,8,7,6,
5x/1xh,4,3,2,1x/5xh,8,7,6,5x/1xh,4,3,2,1x/5xh,8,7,6,
1x/5xh,2/6,3/7,4/8,5x/1xh,6,7,8,1x/5xh,2/6,3/7,4/8,5x/1xh,6,7,8,
1x/5xh,2/6,3/7,4/8,5x/1xh,6,7,8x,1x/5xh,2/6,3x/7x,4/8,5x/1xh,6,7x,8x,
{8}5b/1xh,5,6b/2x,6,7b/3x,7,8b/4x,8,
{16}1x,1,1,1,1,1,1,1,1,1,1,1,1xw5[16:1],1x,1x,1x,
,,,6xh[16:1],,,{8}3,{16}5-7v6[4:1],4,,4,{8}5,3,
{16}2-4[16:1],2,,,7,,,5,{8}6,6,{16}3qq1[8:1],4,3,4,
{4}3pp5[8:1],3>1[8:1],{16}3V52[4:1],6,,6,{4}3,
{8}7x,{16}7x-5[16:1],7x,{8}7x-4v1-3[4:1],7x,,,{4}A3,
{16}7-5[8:1],8,7,8,{4}7,{16}2,4,,,7,5,,5,
6h[16:1],,,4h[16:1],,,{8}2h[16:1],{4}8h[16:1],{8}3,{16}2,4,
3,4,,6,{8}5,{16}7,8,6,1,,7,5,6,4,5,
{8}3x,{16}3x-5[16:1],3x,{8}3x-6v1-7[4:1],3x,,,{4}A7,
{16}4/5,,,3xh[16:1],,,{8}6,{16}4-2v3[4:1],5,,5,{8}4,6,
{16}7-5[16:1],7,,,2,,,4,{8}3,3,{16}6pp8[8:1],5,6,5,
{4}6qq4[8:1],6<8[8:1],{16}6V47[4:1],3,,3,{4}6,
{8}2x,{16}2x-4[16:1]*-5[16:1],2x,{8}2x,2x,{16}6x,6x,6x,6x,{4}6x,
{16}2-4[8:1],1,2,1,{4}2,{16}7,5,,,2,4,,4,
3h[16:1],,,5h[16:1],,,{8}7h[16:1],{4}1h[16:1],{8}6,{16}7,4,
6x/5x,5x/6x,,3x/4x,{8}4x/3x,{16}2x/1x,1/2x,3,8,,2,4,3,5,4,
6,6,{8}6,{16}5,5,{8}5,{16}4,3,4,3,{4}5bw1[2:15]*v8[16:1],
{1}5w1[4:29],
,,,,,,,{4}1bv6[4:3],
1,1,1,
3p5[4:3],3,3,3,
7p2[4:3],7,7,7,
4p8[4:3],4,4,4,
6-2[4:1],6,4-8[4:1],4,
5,{8}5,{16}5,4,{8}6/3,7/8,{16},4,{8}3,
{16}5,4,5,4,6,3,6,3,7,2,8,1,7,2,8,1,
{1}7xpp6[2:1],
{16}6,5,6,4,{8}6,{16}6,5,6,5,{8}6,6/5,6/4,
{16}6/5,4,3/6,2,{8}6,6/4,{16}6/4,3,6/2,1,{8}6,6,
{16}6,5,6,4,{8}6,{16}6,5,6,5,{8}6,6/5,6/4,
{16}6/5,4,3/6,2,{8}6,6/4,{16}6/4,3,6/2,1,{8}6,{16}6/5,4,
{8}6/3,{16}6,4,{8}6,6/3,6/4,6,6/5,4/6,
6/3,{16}6,5,{8}6,6/3,6/4,6,{16}6,5,6,4,
{8}6,{16}6,5,{8}6,{16}6,5,6,7,6,5,{8}6,{16}6,5,
6,4,6,3,6,2,6,1,{8}6,6/5,5/4,{16}3,4,
3,4,3,5,{8}3,{16}3,4,3,4,{8}3,3/4,3/5,
{16}3/4,5,6/3,7,{8}3,3/5,{16}3/5,6,3/7,8,{8}3,3,
{16}3,4,3,5,{8}3,{16}3,4,3,4,{8}3,3/4,3/5,
{16}3/4,5,6/3,7,{8}3,3/5,{16}3/5,6,3/7,8,{8}3,{16}7,5x,
{8}6b,{16}3,4b,,,{8}5b,{4}2b,{16}8,1,8,1,
{8}8b,{16}7,5b,,,{8}1b,{16}3b,,,4,6,3,7,2,
8x,1x,7x,1,8x,1x,7,1x,8,2x,8x,1,8x,2x,8x,1,
{4}8xh[4:3],,,6p4p2p8p6b[2:7],
{1}Ch[2:7],
,,,{16}6b,
4,5,4,5,4,6,4,5,3,5,4,6,4,6,4,
6,3,5,3,5,4,6,4,6,4,5,4,6,3,7,2,
8,1,8,1,7,1,8,1,7,2,6,3,5,4,6,5,
7,4,8,3,1x,2,3,4,{8}5,{16}3,4,,7x,6x,5x,
1b,2,3,4,5x/1x,2,3,4,5x/1x,8,7,6,5x/1x,8,7,6,
5x/1x,2,3,4,5,6,7,8,1x/5x,4,3,2,1,8,7,6,
5x/1x,4,3,2,1x/5x,4,3,2,1x/5x,6,7,8,1x/5x,6,7,8,
1x/5x,4,3,2,1,8,7,6,5x/1x,2,3,4,5,6,7x,8x,
{8}5b/1x,{16}3,4b,,,{8}7b,{4}2b,{16}6,5,6,5,
{8}6b,{16}4,3b,,,{8}7b,{4}5b,{16}3,4,3,4,
{8}3b,{16}7,5,{8}6b,{16}2,5,3b,4b,3b,4b,{8}3b,{16}6,4,
5b,5,5,5,5b,5,5,5,5b,5,5,5,5b,5,5,5,
5b,5b,5b,5b,5b-7s3-1b[2:1],5bh[16:7],,,,,,,,,,,,,,,1b,
1,1,1,1x,1,1,1,1x,1,1,1,
1x,1,1,1,1x,1,1,1,1x,1,1,1,1x,1,1,1,
1x,1,1,1,1x,1,1,1,1x,1,1,1,1x,1,1,1,
1x,1,1,1,1x,1,1,1,1x,1,1,1,1x,1,1,1,
1x,1,1,1,1x,1,1,1,1x,1,1,1,1x,1,1,1,
1x,1,1,1,1x,1,1,1,1x,1,1,1,1x,1,1,1,
1x,1,1,1,1x,1,1,1,1x,1,1,1,1x,1,1,1,
1x,1,1,1,1x,1,1,1,1x,1,1,1,1x,1,1x,1x,
1b,1,1,1,1x,1,1,1,1x,1,1,1,1x,1,1,1,
1x,1,1,1,1x,1,1,1,1x,1,1,1,1x,1,1,1,
1x,1,1,1,1x,1,1,1,1x,1,1,1,1x,1,1,1,
1x,1,1,1,1x,1,1,1,1x,1,1,1,1x,1,1,1,
1x,1,1,1,1x,1,1,1,1x,1,1,1,1x,1,1,1,
1x,1,1,1,1x,1,1,1,1x,1,1,1,1x,1,1,1,
1x,1,1,1,1x,1,1,1,1x,1,1,1,1x,1,1,1,
1x,1,1,1,1x,1,1,1,1x,1x,1x,1x,1x,1x,1x,1x,
{4}1xp5[8:1]*q5[8:1],1b,{16}1x,1,1x,1,1x,1,1x,1,
1x,1,1x,1,1x,1,1x,1,1x,1,1x,1,1x,1,1x,1,
1x,1,1x,1,1x,1,1x,1,1x,1,1x,1,1x,1,1x,1,
1x,1,1x,1,1x,1,1x,1,1x,1,1x,1,1x,1,1x,1,
1x,1,1x,1,1x,1,1x,1,1x,1,1x,1,1x,1,1x,1,
1x,1,1x,1,1x,1,1x,1,1x,1,1x,1,1x,1,1x,1,
1x,1,1x,1,1x,1,1x,1,1x,1,1x,1,1x,1,1x,1,
1x,1,1x,1,1x,1x,1x,1x,1x,1x,1x,1x,{4}1x,
{8}8b/1b,1/8,7/2,7/2,6/3,6/3,5/4,5/4,
7/5,7/5,4/2,2/4,6/5,6/5,3/2,3/2,
6b/4b,6/4,4/2,2/4,5/3,5/3,7/6,6/7,
8/2,8/2,4/3,4/3,1/5,5/1,{16}5/1,2/6,3/7,8/4,
{8}5b/1b,{16}8,4,8,4,8,4,7,3,7,3,7,3,7,3,
6b,2,6,2,6,2,6,2,5,3,5,3,5,3,5,3,
4b,4,4,4,4,4,4,4,4b,4,4,4,4,4,4,4,
4b,4,4,4,4b,4,4,4,4b,4b,4b,4b,4bv6[4:1],4b,4b,4b,
{8}4bh[4:3],{32},,,,,,,,A6,B6,C,B2,{8}A2,E2,{4}E1,
{1}B7/B8/B1/B2/B3/B4/B5/B6/Cfh[8:1],
E
