&title=ULTRA MEGA HAPPY PARTY!!!
&artist=翡乃イスカ
&first=0.016
&des=Tane/雪魚宝/青八段
&wholebpm=205
&PVStart=67.9
&PVEnd=88.9
&des_1=
&des_2=
&des_3=
&des_4=Tane
&des_5=雪魚宝
&des_6=青八段
&lv_4=12
&lv_5=13+
&lv_6=14
&inote_1=(205){1},
&inote_2=(205){1},
&inote_3=(205){1},
&inote_4=(205){1},
{4}
3q5[8:5],,,,
6h[4:1],7h[4:1],8h[4:1],,
3h[4:1],2h[4:1],1h[4:1],,
5h[4:1],6,4h[4:1],3,
36,27,1-4[8:1]/8-5[8:1],,
3h[4:1],2h[4:1],1h[4:1],,
6h[4:1],7,3h[4:1],4,
56,56,34,34,
4h[4:3]/5h[4:3],,,,
3,2,4,5,
3,2,4,3,
5,6,4,3,
{8}4b/5b,4b/5b,4b/5b,,
3b/4b,3b/4b,3b/4b,,{4}
6,7,5,4,
6,7,5,6,
4,3,5,6,
{8}5b/4b,5b/4b,5b/4b,,
6b/5b,6b/5b,6b/5b,,{4}
3h[8:1],2h[8:1],5h[8:1],6h[8:1],
4h[8:1],3h[8:1],6h[8:1],7h[8:1],
4h[8:1],3h[8:1],5h[8:1],6h[8:1],
{8}3b/6b,3b/6b,3b/6b,,
4b/5b,4b/5b,4b/5b,,{4}
2h[4:1],3,7h[4:1],6,
1h[4:1],4,8h[4:1],5,
{8}
1,1,8,8,
2,2,7,7,
3p5[8:5]/6q4[8:5],,,,
,,,,
{4}
3,3,2-4[4:1],,
6,6,7-5[4:1],,
3,3,6,6,
12,18,78,,
3,3,2^4[4:1],,
6,6,7^5[4:1],,
2,2,7,7,
{8},2b/7b,2b/7b,2b/7b,
2b/7b,,,,
3h[8:1],4,5h[8:1],2,
3,4,2,5,
2h[8:1],5,4h[8:1],3,
2,5,3,,
3h[8:1],4,5h[8:1],2,
3,4,2,5,
2b/5b,,2b-4[8:1]/5b-7[8:1],,
,,,,
6h[8:1],5,4h[8:1],7,
6,5,7,4,
7h[8:1],4,5h[8:1],6,
7,4,6,,
{16}
6,5,6,,
74,,,,
4,5,4,,
36,,,,
3,4,3,,
25,,,,
5,4,5,,
63,,,,
{8}
45,,27,,
2-5[8:1],2,8-4[8:1],8,
2,,15,,
1-5[8:1],1,7^4[8:1],7,
3,,25,,
2^7[8:1],2,6^3[8:1],6,
1-4[8:1],1,8-5[8:1],8,
1w5[8:1],,,,
4,,34,,
2-5[8:1],2,8,,
6,5,6,,
7-4[8:1],7,1,,
34,,34,,
56,,56,,
2-5[8:1],,7-4[8:1],,
1-5[8:1],,8,,
78,8h[8:5]/7,,,
6,,5,,
12,1h[8:5]/2,,,
3,,4,,
18,7h[8:5]/8,,,
6,,5,,
18,2h[8:5]/1,,,
3,,4,,
2^4[8:1],2,6,6,
7^5[8:1],7,3,3,
1^3[8:1],1,7,7,
8^6[8:1],8,2,2,
{16}
1,8,1,8,
1,8,1,8,
1,8,1,8,
1,8,1,8,
{8}
1h[4:1],,3h[4:1],,
5h[4:1],,7,,
3-8[8:1],,4,,
5-8[8:1],,4,,
2,1,3,8,
1-5[8:1]/2-5[8:1],,,,
8,7,56,,
4,3,21,,
7b/8b,,5b/6b,,
3b/4b,,1b/2b,,
8-4[8:1],,,,
3,4,2,,
12,,12,,
78,,78,,
2b/8b,,,,
1b/7b,,,1b/8b,
,2b/7b,2bq8[8:3]/7bp1[8:3],,
,,,,
6-1[8:1],,5,,
4-1[8:1],,5,,
7,8,6,1,
8-4[8:1]/7-4[8:1],,,,
1,2,34,,
5,6,7,8b/1b,
,2b/3b,,4b/5b,
,7b/6b,,8,
1-5[8:1],,,,
6,5,7,4h[8:2]/6h[8:2],
,,3h[8:1]/5h[8:1],,
5h[8:1]/7h[8:1],,2h[8:1]/4h[8:1],,
3,4,25,1,
6,5,47,8,
2,1,38,4,
7,8,16,5,
{16}
3,4,3,,
6,5,6,,
{8}45,45,36,36,
2h[8:6]/7h[8:6],,,,
,,,,
1h[8:4]/4h[8:4],,,,
,3h[8:3]/4,,,
7,,8h[8:4]/5h[8:4],,
,,,5/6h[8:3],
,,2,,
4h[8:4]/8h[8:4],,,,
,3/4h[8:3],,,
5,,3h[8:3]/6h[8:3],,
,,36,,
36,,45,,
{16}
1b,,,2b,
,,3b,,
{12}5,,3,
7,5,6,
2,4,3,{16}
8b,,,7b,
,,6b,,
{12}4,,6,
2,4,3,
7,5,6,{16}
1b,,,2b,
,,3b,,
{12}5,,3,
7,5,6,
2,4,3,{16}
8b,,,7b,
,,6b,,
{12}1,4,2,
8,5,7,
1,4,3,
8,5,6,
2,4,3,
7,5,6,
2,4,3,
{8}
5,,6,,
7,,8,,
1,,2,,
3,,4,,
6h[4:1],,5,,
3h[4:1],,4,,
2h[4:1]/3,,4,,
6/7h[4:1],,5h[4:1],,
4h[4:1],,,,
4,,3,,
5,,6,,
3,,2,,
1b/2b,,,,
7b/8b,,,1b/8b,
,2b/7b,2b/7b,3b/6b,
3b/6b,,,,
3-8[8:1],,5,,
6-1[8:1],,4,,
2,7,1,8,
2-5[8:1]/7-4[8:1],,,,
2^5[8:1],2,1,,
7,7,8,7b/8b,
,3b/4b,,1b/2b,
,5b/6b,,3b/4b,
2b/5b,,,,
34,2,56,7,
35,2,46,7,
25,1,47,8,
2,1,38,7,
3,4,25,1,
7,8,16,2,
6,5,47,8,
{16}
2,1,2,,
7,8,7,,
{8}18,18,27,27,
3V15[8:5]/6V84[8:5],,,,
,,,,
6h[4:1],,4h[4:1],,
2h[4:1],,,,
3h[4:1],,5h[4:1],,
7h[4:1],,,,
4h[4:1],,2,,
5h[4:1],,7,,
2,7,3,6,
1-5[8:1]/8-4[8:1],,,,
3h[8:1],,2h[8:1],,
6h[8:1],,7h[8:1],,
4h[8:1],,3h[8:1],,
5h[8:1],,6h[8:1],,
4h[8:1],,2h[8:1],,
5h[8:1],,7h[8:1],,
1h[8:1],,1h[8:1],,
1-5[8:1],,,,
8b,,,,
(1){1},E
&inote_5=(205){1},
{4}8<1[8:3],,,4b,{8}8,3,7,2h[8:3],{2}6-8[8:1],{8}1,6,2,7h[8:3],{2}3-1[8:1],
{8}6,1,5,2,8,3,7,4,{4}3^1[8:1],5^7[8:1],8w4[8:1],,
2h[8:1]/5h[8:1],3h[8:1]/4h[8:1],7h[8:1]/4h[8:1],6h[8:1]/5h[8:1],
1h[8:1]/5h[8:1],3h[8:1]/4h[8:1],8h[8:1]/4h[8:1],6h[8:1]/5h[8:1],
{8}35,4,46,5,{16}3,5,3,,6,4,6,,{8}3h[4:1],4,6h[4:1],5,3^6[8:1],8,,,
{8}7-5[8:1],8,87,,{16}2,4,3,,7,5,6,,{8}2-4[8:1],1,12,,{16}7,5,6,,2,4,3,,
{8}7-5[8:1],8,87,,{16}2,4,3,,7,5,6,,{8}3bv8[8:1],3b,3b/5b,,6bv1[8:1],6b,6b/4b,,
{8}3^1[8:1],4,43,,{16}6,5,7,,3,4,2,,{8}6^8[8:1],5,56,,{16}3,4,2,,6,5,7,,
{8}3^1[8:1],4,43,,{16}6,5,7,,3,4,2,,{8}7bv4[8:1],7b,7b/1b,,2bv5[8:1],2b,2b/8b,,
7-4[8:1],8,7,1,2-5[8:1],1,2,8,7-4[8:1],8,7,1,2,5,{16}3,4,3,4,
{8}2-5[8:1],1,2,8,7-4[8:1],8,7,1,2b-7[8:1]*-5[8:1],2b,2b,,6b-3[8:1]*-1[8:1],6b,6b,,
{16}2h[8:1],,,1h[8:1]/3h[8:1],,,48,,7h[8:1],,,8h[8:1]/6h[8:1],,,51,,
3h[8:1],,,4h[8:1]/2h[8:1],,,15,,6h[8:1],,,5h[8:1]/7h[8:1],,,84,,
{12}3,2,1,6,7,8,4,3,2,5,6,7,{4}8V61[16:5]/4V25[16:5],,,4b/8b,
{8}7,3h[32:1],,5h[32:1],,2h[32:1],,8h[32:1],,4h[32:1],,7h[32:1],,1h[32:1],,6h[32:1],
,2h[32:1],,5h[32:1],,3h[32:1],,7h[32:1],{4}1h[4:1],2h[4:1],{8}3h[4:1],{16}8,7,{4}6b,
{8}2,6h[32:1],,4h[32:1],,7h[32:1],,1h[32:1],,5h[32:1],,2h[32:1],,8h[32:1],,3h[32:1],
,7h[32:1],,4h[32:1],,6h[32:1],,2h[32:1],,1b/8b,1b/8b,2b/7b,{4}1b^4[8:1]/8b^5[8:1],1b/8b,
{8}1^6[8:1],2,3,4,4^1[8:1],5,6,7,7^4[8:1],8,1,2,2^5[8:1]*^7[8:1],3,2,,
8^3[8:1],7,6,5,5^8[8:1],4,3,2,{4}2b-8[8:1],2b-5[8:1]/7b-4[8:1],2b/7b,,
{8}8^3[8:1],7,6,5,5^8[8:1],4,3,2,2^5[8:1],1,8,7,7^2[8:1],6,5,4,
3-8[8:1],3,6-1[8:1],6,4-8[8:1],4,5-1[8:1],5,2-6[8:1],2,8-4[8:1],8,1-5[8:1],1,7,7,
{4}2b/6b,{16}1,2,3,4,5,6,7,8,1,2,3,4,{8}5b/7b,{16}6,5,7,,3,4,2,,7,8,6,,,,
{8}1^4[8:1],5,6,7,8^5[8:1],4,3,2,{4}1h[4:1],{16}8,7,6,5,4,3,2,1,8,7,6,5,
{4}2b/4b,{16}3,4,3,,6,5,6,,3,4,3,,7h[8:1],,5,6h[8:1],,4,5h[8:1],,
2,4h[8:1],,3,5h[8:1],,4,,{8}7-4[8:1],7,3,2,1-4[8:1],1,5,6,
{16}7,6,5,4,1,2,3,4,8,7,6,5,2,3,4,5,
{8}7b,7b,{16}6,5,7,4,8,3,7,4,{8}6b,6b,2b,2b,{16}5,4,6,3,7,2,6,3,{4}5b,
{8}2b,2b,{16}3,4,2,5,1,6,2,5,{8}3b,3b,7b,7b,{16}4,5,3,6,2,7,3,6,{4}4b,
{8}7b^4[8:1],7,3,3,1bq5[8:1],1,6,6,8bp4[8:1],8,3,3,2b^5[8:1],2,6,6,
{12}6,7,8,3,2,1,5,6,7,4,3,2,{4}1bpp4[2:1]/5b,8b,7b,6b,
{4}5b-7[8:1],5b-1[8:1]/1b-3[8:1],5b/1b,{8}4,3,2V48[4:1],4,2,6,7V51[4:1],5,7,3,
2^5[8:1],2,8-4[8:1],8,1-5[8:1],1,7^4[8:1],7,
{4}2b-8[8:1],2b-4[8:1],2b-6[8:1],2b,
47,{8},{16}6,5,{8}6,47,3,2>7[4:1]/5,,7,8,,{16}1b/8b,,,2b/4b,,,5b/7b,,
{8}4b-8[4:1],,,,4b-8[8:1],,,1b,{8},2b/8b,3b/7b,4b/6b,{16}5,4,6,3,{4}7b,
{4}4b-2[8:1],4b-8[8:1]/8b-6[8:1],4b/8b,{8}5,6,
7^4[8:1],4-8[8:1],7,3,2^5[8:1],5-1[8:1],2,6,
7-3[8:1],7,8-4[8:1],8,1-5[8:1],1,2,
{4}2b-7[8:1],2b-5[8:1],2bw6[8:1],2b,{8}48,
{4}13,{8},{16}3,4,{8}3,52,6,7<2[4:1]/4,,2,1,,{16}8b/1b,,,7b/5b,,,4b/2b,,
{4}5^7[4:1],7^1[4:1],1^3[4:1],3^6[4:1],6^1[4:1],1^4[4:1],4^7[4:1],7^2[4:1],
2^5[4:1],5<1[4:1],1>5[4:1],5<5[8:5],{1}3h[4:3],
{16}1h[8:1],,,7h[8:1],,,1,,2,3,4,5,6,7,8,1,2,3,4,5,
{16}8h[8:1],,,2h[8:1],,,8,,7,6,5,4,3,2,1,8,7,6,5,4,
{16}1h[8:1],,,7h[8:1],,,1,,2,3,4,5,6,7,8,1,2,3,4,5,
{4}7bq8[4:3]*<8[4:3],,,,,
{16}1h[8:1],,,8h[8:1],,,2,,3,4,5,6,7,8,1,2,3,4,5,6,
{16}8h[8:1],,,1h[8:1],,,7,,6,5,4,3,2,1,8,7,6,5,4,3,
{16}1h[8:1],,,8h[8:1],,,2,,3,4,5,6,7,8,1,2,3,4,5,6,
{4}8bqq5[4:3]*pp5[4:3],,,,,{16}4,5,4,5,4,5,4,5,3,6,3,6,3,6,3,6,
{2}3b,4,5,6,7,8,{4}2b,1b,8b,7b,1b/6b,{8},2,6,3,7,4,,3,6,2,{16}7b,,,1b/8b,,,2b/4b,,
{8}5b-1[4:1],,,,5b-1[8:1],,,8b,{8},7b/1b,6b/2b,5b/3b,{16}4,5,3,6,{4}2b,
{4}5b^7[8:1],5b-1[8:1]/1b^3[8:1],5b/1b,{8}4,3,
2^5[8:1],5-1[8:1],2,6,7^4[8:1],4-8[8:1],7,3,
2q6[8:1],2,1-5[8:1],1,8-4[8:1],8,7,
{4}7b^2[8:1],7b^4[8:1],7bw3[8:1],7b,{8}51,
{4}86,{8},{16}6,5,{8}6,47,3,2>7[4:1]/5,,7,8,,{16}1b/8b,,,2b/4b,,,5b/7b,,
{4}4^2[4:1],2^8[4:1],8^6[4:1],6^3[4:1],3^8[4:1],8^5[4:1],5^2[4:1],2^7[4:1],
7^4[4:1],4>8[4:1],8<4[4:1],4>4[8:5],{1}6h[4:3],
{8}8b,7,2b/6b,3,{4}7h[4:1]/4b-2[8:1],4b,{8}1b,2,7b/3b,6,{4}2h[4:1]/5b-7[8:1],5b,
{8}3b,8,4,7,1b,6,2,5,{4}6b^8[8:1],4b^2[8:1],1bw5[8:1],,
{4}2h[8:1]/6h[8:1],3h[8:1]/4h[8:1],7h[8:1]/3h[8:1],6h[8:1]/5h[8:1],
1h[8:1]/6h[8:1],3h[8:1]/4h[8:1],8h[8:1]/3h[8:1],6h[8:1]/5h[8:1],
{8}17,8,28,1,{16}7,1,7,,2,8,2,,{8}7h[4:1],8,2h[4:1],1,7h[4:1],8,1b-5[8:1],,
1b>8[2:3],
&inote_6=(205){1},
{4}1s5[8:2]/7s3[8:2],,,8b,
{8}47,3,28,7,6/4V28[8:1],,7,,
{8}52,6,71,2,3/5V71[8:1],,2,,
{8}28,3,4,5,68,1,2,3,
{8}45,6,17,2,3/5w1[8:1],,,,
{16}3,4,3,,6,5,6,,3,4,2,,6,5,7,,
{16}2,1,3,,7,8,6,,2,1,4,,7,8,5,,
{16}1,8,1,8,2,7,2,7,3,6,3,6,4,5,4,5,
{16}3,4,3,,3,1,3,,3-1[8:1],5,3,,3b/4b,,,,
{16}5,6,7,8,{8}1-5[8:1]/2,3,4V68[4:1],3,3,,
{16}4,3,2,1,{8}8-4[8:1]/7,6,5,6,37,37,
{16}8,7,6,5,{8}4-8[8:1]/3,2,1,2,{16}2,3,4,5,
{8}8bw4[8:1],8b,8b,,1bw5[8:1],1b,1b,,
{16}3,2,1,8,{8}7-3[8:1]/4,4,5V31[4:1],5,6,,
{16}5,6,7,8,{8}1-5[8:1]/2,3,4,3,62,62,
{16}1,2,3,4,{8}5-1[8:1]/6,7,8,7,{16}7,6,5,4,
{8}1bp5[8:1]*q5[8:1],1b,1b,,8bp4[8:1]*q4[8:1],8b,8b,,
{8}56,8,34,1,56,8,34,1,
{8}46,8,35,1,46,8,{16}4b,4b,4b,4b,
{8}4b,,35,1,46,8,35,1,
{8}5bw1[8:1],5b,5b,,4bw8[8:1],4b,4b,,
{16}5h[8:1]/6h[8:1],,,4h[8:1]/7h[8:1],,,38,,4h[8:1]/3h[8:1],,,5h[8:1]/2h[8:1],,,61,,
{16}1h[8:1]/2h[8:1],,,8h[8:1]/3h[8:1],,,74,,8h[8:1]/7h[8:1],,,1h[8:1]/6h[8:1],,,25,,
{12}5,6,7,48,1,2,37,4,5,26,7,8,
{4}1b/5b,,{16}4,5,4,5,{8}3b/6b,,
{8}3h[1:1],4,,4,,5,,5,
{8}6h[1:1],5,,5,,4,,4,
{8}3h[1:1],4,,5,,6,,7,
{4}7h[4:1],5h[4:1],{8}4h[4:1],2,2b,,
{8}2h[1:1],1,,1,,8,,8,
{8}7h[1:1],8,,8,,1,,1,
{8}2h[8:7],1,,8,,7,,6,
{8},1b/8b,1b/8b,1b/8b,2b-5[8:1]/7b-4[8:1],,2b/7b,,
{8}3-1[8:1],4,5,6,6-8[8:1],5,4,3,
{8}2-5[8:1],1,2,8,8-4[8:1],1,8,,
{8}6-8[8:1],5,4,3,3-1[8:1],4,5,6,
{4}3-8[8:1]/7-4[8:1],7-2[8:1]/3-6[8:1],37,1b/5b,
{8}2-4[8:1],1,8,7,7-5[8:1],8,1,2,
{8}3-8[8:1],4,3,5,5,4,{16}6,5,6,5,
{8}6^1[8:1],6,4p8[8:1],4,5q1[8:1],5,3^8[8:1],3,
{8}7-4[8:1],7,1-5[8:1],1,8-4[8:1],8,2,2,
{8}1b/3b,,{16}8,1,8,1,8,7,6,5,1,2,3,4,
{16}56,,6,5,7,,3,4,2,,6,5,8,,3,4,
{8}1-5[8:1],8,7,6,5-1[8:1],4,3,2,
{8}1b/8b,{16}1,8,1,2,3,4,8,7,6,5,8,1,2,3,
{8}4b/5b,,{16}4,7,3,6,2,5,3,1,2,8,1,7,
{16}8b,,1,8,2,,8,1,7,,1,8,2,7,3,6,
{4}4b-8[8:1]/5b,7b-4[8:1],3b-7[8:1],5b-1[8:1],
{4}2b-5[8:1],6b-2[8:1],1b-5[8:1],8b,
{8}2b/7b,2b/7b,{16}2,4,3,5,4,6,5,7,{8}1b,2b/8b,
{8}2b/8b,2b/8b,{16}7,5,6,4,5,3,4,2,{8}8b,,
{8}3b/6b,3b/6b,{16}3,1,2,8,1,7,8,6,{8}4b,3b/5b,
{8}3b/5b,3b/5b,{16}6,8,7,1,8,2,1,3,{8}5b,,
{16}3b,4,1,,6b,5,8,,3b,4,1,,6b,5,8,,
{16}3b,5,1,,6b,4,8,,3b,5,1,,6b,4,8,,
{16}3,4,1,6,2,5,8,7,5,6,3,8,{24}2,1,2,1,2,1,
{4}3b/8b,7b,6b,5b,
{16}3,4,2,,6,5,7,,2,1,2,1,{8}2-5[8:1],3,
{8}2/8-4[8:1],7,8/1-5[8:1],2,1/7-4[8:1],6,78,1,
{16}2,1,3,,7,8,6,,2,4,3,,7,5,6,,
{4}1b-5[8:1],1b^4[8:1]*^6[8:1],1bw5[8:1],1b,
{8}3b/7b,,{16}7,8,7,,{8}1/6-1[8:1],2,3,4,
{16}4,8,2,,5,1,7,,4,8,2,,5,1,7,,
{8}4b-8[8:2],,,,4b-8[8:1],,,4b,
{8},1b/7b,2b/6b,3b/5b,{16}4b,4b,4b,4b,{8}4b,,
{16}6,5,7,,3,4,2,,7,8,7,8,{8}7-4[8:1],6,
{8}7/1-5[8:1],2,1/8-4[8:1],7,8/2-5[8:1],3,21,8,
{16}7,8,6,,2,1,3,,7,8,7,,1,8,1b-5[8:1],,
{8},{4}1b^4[8:1]*^6[8:1],1bw5[8:1],1b,{8}3b/7b,
{8}6b/2b,,{16}2,1,2,,{8}8/3-8[8:1],7,6,5,
{16}5,1,7,,4,8,2,,5,1,7,,4,8,2,,
{16}6,1,6,,3,8,3,,6,1,5,,3,8,4,,
{16}7,1,5,,2,8,4,,7,1,5,,2,8,4,,
{16}4,5,4,5,3,6,3,6,2,7,2,7,{24}1,8,1,8,1,8,
{1}2b/7b,
{16}2h[8:1]/5h[8:1],,,4h[8:1]/7h[8:1],,,18,,2,3,4,5,1,2,3,4,
{16}8,1,2,3,7h[8:1]/4h[8:1],,,5h[8:1]/2h[8:1],,,81,,7,6,5,4,
{16}8,7,6,5,1,8,7,6,2h[8:1]/5h[8:1],,,4h[8:1]/7h[8:1],,,18,,
{16}2,3,4,5,8,7,6,5,2,1,2,1,3,8,3z7[8:1],8,
{4}3,{16},,68,1,2,3,4,5,6,7,8,1,
{16}2h[8:1]/5h[8:1],,,4h[8:1]/7h[8:1],,,18,,2,3,4,5,1,2,3,4,
{16}8,1,2,3,7h[8:1]/4h[8:1],,,5h[8:1]/2h[8:1],,,81,,7,6,5,4,
{16}8,7,6,5,1,8,7,6,2h[8:1]/5h[8:1],,,4h[8:1]/7h[8:1],,,18,,
{16}2,3,4,5,8,7,6,5,2,1,2,1,{4}3b/8b,,
{16}7,8,7,8,6,1,6,1,5,2,5,2,4,3,4,3,
{16}1,2,7,4,8,3,6,5,{24}7,8,7,8,7,8,
{2}1b/6b,2,
{2}3,4,
{2}5,6,
{4}7b,8b,1b,2b,
{4}4b/5b,{8},3,4,2,5,3,
{8},6,5,7,4,8,3,1,
{8}1b/2b,,,,7b/8b,,,4b/5b,
{8},4b/6b,3b/7b,2b/8b,{16}1b,1b,1b,1b,{8}1b,,
{8}78,5,12,4,78,5,{16}2,1,2,1,
{8}2-5[8:1],2,6-1[8:1],6,3-8[8:1],3,7-4[8:1],7,
{16}1,2,3,4,1,8,7,6,5,4,{24}2,3,4,5,6,7,{8}1b/8b-4[8:1],
{8},{4}8b^5[8:1]*^3[8:1],8bw4[8:1],8b,{8}2b/6b,
{16}3,5,4,,6,4,5,,3,4,2,,6,5,7,,
{16}1,8,2,,8,1,7,,1,8,3,,8,1,6,,
{16}2,3,4,5,1,2,3,4,7,6,5,4,8,7,6,5,
{16}8,1,2,3,8,7,6,5,1,2,3,4,1,8,7,6,
{16}4,5,4,5,3,6,3,6,2,7,2,7,{24}1-5[8:1],8,1,8,1,8,
{1}1b,
{8}3b/4b,2,1b/8b,7,6b/5b-1[8:1],,8b,,
{8}6b/5b,7,8b/1b,2,3b/4b-8[8:1],,1b,,
{8}4b/6b,2,2,2,3b/5b,7,7,7,
{8}5b/4b,3,5b/4b,6,5b/4bw8[8:1],,,,
{16}4b,5,3,,5b,4,6,,4b,5,3,,5b,4,6,,
{16}4b,5,2,,5b,4,7,,4b,5,2,,5b,4,7,,
{16}4,5,4,5,3,6,3,6,2,7,2,7,1,8,1,8,
{16}2b,1,2,,2b,4,2,,2b-4[8:1],8,2,,2b/1b,,,,
{1}5b,,
