&title=First Snow
&artist=黒魔
&first=0
&des=Brilliant Behemoth
&lv_5=13
&inote_5=(88){1},
{4}2-4[16:1],5h[64:1],3-5[16:1],6h[64:1],4-6[16:1],7h[64:1],5-7[16:1],C,
{16}8h[16:3],,,2,3h[8:1],,5,6h[4:1],,,,5,4h[16:7],,7h[16:3],,
{16},,,7,8-5-2-6[8:3],8,2,2,{8}3h[4:1],,,,
{16}1h[16:3],,,7,6h[8:1],,4,3h[4:1],,,,4,5h[16:7],,2h[16:3],,
{16},,,3,{8}8h[16:1],1h[16:1],3h[16:1],4h[16:1],6h[16:1],7,
{16}1h[16:3],,,7,6h[8:1],,4,3h[4:1],,,,4,5h[16:7],,2h[16:3],,
{16},,,2,1-4-7-3[8:3],1,7,7,{8}6h[4:1],,,,
{16}5h[16:3],,,3,2h[8:1],,8,7h[4:1],,,,8,1h[16:7],,6h[16:3],,
{16},,,6,{8}1h[16:1],8h[16:1],6h[16:1],5h[16:1],3h[16:1],2,
{8}1b/7bqq5[4:1],,,1>3[8:1],,,,,5>3[8:1]/7,,,8q6[4:1],,,,,
{8}8/2pp4[4:1],,,8<6[8:1],,,,,4<6[8:1]/2,,,3q1[4:1],,,,,
{8}1/7qq5[4:1],,,1>3[8:1],,,,,5>3[8:1]/7,,,6pp8[4:1],,,2>4[8:1],2,
{4}2,{24}8,7,6,4,3,2,7pp4[4:3],6,5,3,2,1,{4}6h[4:3],
{1},
{4}2h[8:1]/4h[8:1],{16}3,3,5,4,{4}2h[8:1]/6V84[4:1],{8}1,1,
{8}3h[8:1],5,{16}6-3-1-5[8:3],4,7,7,{4}8h[8:1],8,
{4}7h[8:1]/4h[8:1],{16}2-5[8:1],2,8,8,{8}6-1[8:1],7,2,3,
{16}2,2,5h[8:1],,{24}1,2,3,5,6,7,2-6[8:1],3,4,6,7,8,{4}3,
{4}7h[8:1]/5h[8:1],{16}6,6,4,5,{4}7h[8:1]/3V15[4:1],{8}8,8,
{8}6h[8:1],4,{16}3-6-8-4[8:3],5,2,2,{4}1h[8:1],1,
{4}2h[8:1]/5h[8:1],{16}7-4[8:1],7,1,1,{8}3-8[8:1],2,7,6,
{16}7qq3[2:1],7,4h[8:1],,{4},{16}2h[32:3],,,1,1,,,,
{16}2,4,3,6,5,4,3,5,4,7,6,5,{4}4>1[8:1]/8qq5[4:3],
{1}8b/4b,
{8}3-1[16:1],6,5h[64:1],4,3-1[16:1],6,5h[64:1],4,
{8}7-5[16:1],2,1h[64:1],8,7-5[16:1],2,1h[64:1],8,
{8}1-3[16:1],6,7h[64:1],8,1-3[16:1],6,7h[64:1],8,
{8}5x-8[16:1],2,3h[64:1],4,5-7[16:1],2,3h[4:1],8,
{8}4x-1[16:1],7,6h[64:1],5,4-2[16:1],7,6h[4:1],1,
{8}8x-5[16:1],3,2h[64:1],1,8-6[16:1],3,2h[4:1],5,
{8}8x-3[16:1],5,6h[64:1],7,8-4[16:1],5,Ch[8:1],,
{8}7/B4f,3/B6f,{16}2qq5[4:1],2,8,2,{8}7,,6h[8:1],4,
{8}2/B5f,6/B3f,{16}7pp4[4:1],8,7,7,{8}1,2,3h[8:1],,
{8}6/B1f,2/B7f,{16}2qq5[4:1],2,4,4,{8}5qq3[8:1],6,8,7,
{8}7/B2f,3/B8f,{4},{24}6,5,6,4,5,4,{8}3/7,{48},,,,2p8[2:1],3,
{1}4h[2:1],{2}5h[2:1]/6,{48}1,8,7h[24:5],,,,{8},{48}2,3,4h[24:5],,,,{8},
{48}7,6,5h[24:11],,,,{8},,,{48}1,2,{24}3h[24:2],,5,4,6,{8}5h[8:1]/7h[8:1],,
{8}8,8,8-2[16:1],8-6[16:1],8-3[16:1],8-5[16:1],8>4[16:1]*<4[16:1],8,
{1}8b,
{2},{8}C,2h[8:1],4h[8:1],6h[8:1],
{16}8b,7,5,4,7/3,6,4,3,6<1[8:1]/2,5,3,2,{8}6/4>1[8:1],5,
{16}4/6h[4:1],,,,8,8,7,7,{8}5>8[4:1],6,{16}8q2[4:1],,,{32}7,6,
{4}5h[8:1],{16}5,,,3,2-6[8:1]/4,,{8}2/8,1/2,,
{8}3h[8:1]/4,4,7h[8:1]/5,5,{24}1h[12:1]/8,,7,1,6,2,{16}5,,3,4,
{16}1b/5b,2,4,5,2/6,3,5,6,3/7,4,6,7,3-8[8:1]/8-5[8:1],1b/4b,,,
{4}3/8,4/6,{8}6h[8:1],5h[8:1],4h[8:1],3h[8:1],
{4}8qq4[4:1],{8}4,{16}4,3,{4}2q4[4:1],{16}7,,7,6,
{16}5,3,3h[8:1],,{24}8,7,6,4,3,2,7-3[8:1],6,5,3,2,1,{4}6,
{16}4/6-2[16:1],5,,3,2-4[16:1],,1,8,{8}7,{16}5,6,{16}7-2[16:1],,5,4,{1}3bpp6[4:6]/7bpp2[4:6],,
{4}7-5[16:1],4h[64:1],6-4[16:1],3h[64:1],5-3[16:1],2h[64:1],4w8[16:1],Cf,
