&title=MARENYX
&artist=BlackY × Aoi
&first=0
&des=譜面挑戦状@Xuyu
&lv_6=14+
&inote_6=(195)
{8},,,,,,,,,,,,,,,,
5-3v2-8[1:1]*-8[1:1]b,,,,,,,,,,,,,,,,1v4[1:1]/7v4[1:1],,,,,,,,,,,,,,,,6-1-4[1:1]/3-7[1:1],,,,,,,,,,,,,,,,1>1[2:1],,,,,,,,8-5[8:1],,8,,
{16}4,6,4,6,3,5,3,5,1b-4[8:1],,,,1b-7-2-6-3[1:1],,,,,,,,,,,,,,,,,,,,,,,,,,,,2b/6b,,,,,,
7-2[8:1],,,,4-1[8:1]/7,,,,8-4-8[4:1]/4,,,,,,,,,,,,2-7[8:1],,2,,6-3[8:1],,6,,,,,,,,,,1,2,3,4,56,,47,,
,,21,,83,,,,5<7[12:1],,,,,,
1,2,3,4,5,6,7,8,1,2,3,4,5,6,7,8,
{32}1bx,2,3,4,5,6,7,8,1,2,3,4,5,6,7,8,1,2,3,4,5,6,7,8,1,2,3,4,5,6,7,8,1bs5[1:1],,,,,,,,,,,,,,,,,,,,,,,,,,,,,,,,,,,,,,,,,,,,,,,,,,,,,,,,,,,,,,,,
{16}
34,,34,,2,,17,,56,,7,,18,,2,,35,,3,,46,,6,,25,,2,,47,,,,2-4[8:1],,2,,1-5[8:1],,1,,3-8[8:1],,3,,4-7[8:1],,4,,,,,,1-5[8:1],,2,,13,,4,,4h[8:1],,,,34,,
34,,2,,17,,56,,7,,18,,2,,35,,3,,46,,6,,25,,2,,47,,7,,2-4[8:1],,2,,1-5[8:1],,1,,3-8[8:1],,3,,4-7[8:1],,4,,,,,,1-5[8:1],,28,,1,,7-3[8:1],,7,,,,,,,,1bh[8:1]/4h[8:1],,,,2bh[8:1]/5h[8:1],,,,3bh[8:1]/6h[8:1],,,,7-5[8:1],,,,7,,4-2[8:1],,,,4,,,,,,1b/5b,,,,3-1[8:1],,4,,35,,,,6-8[8:1],,5,,46,,,,1-5[8:1],,28,,1/7-3[8:1],,,,2/7,,2,,
4x,,4xh[4:1],,2,,2-7v4-1[2:1],,,,,,
{8}6,6,6,6,6h[8:1],,
{16}1-5[8:1],,5-1[8:1],,1,,7-4[8:1],,7,,8-3[8:1],,8,,6-1[8:1],,6,,5-2[8:1],,5,,8-4[8:1],,8,,1-3[8:1],,1,,,,,,7h[4:1],,,,,,
{16}4,3,2,1,87,6,5,4,3/2-7[8:1],,,,7-5-3[3:2]/2,,,,,,3h[4:1],,,,,,2h[4:1],,,,,,1h,,,,7<4[8:1]/1b,,,,
{24}8,1,2,3,,,,,,,34,5,6,7,8,
{16}2/1-7-5[4:2],,,,,,3h[8:1],,,,,,2h[8:1],,,,
{8}14,1,25,2,36,3,47,4,58,8,47,7,36,6,25,5,
{16}3-8[8:1],4,3,4,3,,,6-1[8:1],1,6,1,6,,,2,3,4,5h[8:1],,,7,6,5,4h[8:1],,,3,5,4,6,5,7,4,6,3,5,4,5,3,6,2,7,
{32}1,2,3,4x,5x,,,,8,7,6,5x,4x,,,,1,,,,1w5[8:1],,,,,,,,1,,,,,,,,,,,,,,,,
81,72,63,54,,,,,
{16}3,4,3,4,3,4,3h[4:1],,,,,,6,5,6,5,6h[8:1],,,,2-7[8:1]/6-3[8:1],,,,26,,,,1b/5b,,,,
15,2,3,4,15,8,7,6,5-1[8:1]/1,,15,,,,,,4,3,2,1,8-4[8:1],7,6,5,48,,,,2h[8:1],,,,3,4,2h[16:1],,6,5,7h[16:1],,1,2,3,4,58,7,6,5,41,2,3,4,58,7,6,5,14,2,3,4,58,,
4h[16:1],6h[16:1],1,5,3,8h[16:1],2h[16:1],4h[16:1],3,4,3,4,
{16}2h[24:1],,7,5,7,5,6h[24:1],,1,8,2h[32:1],7h[32:1],3h[32:1],,5-1[8:1],4,5,4,5,,,,8-6-4-6[8:5]/2h[4:1],,,,,2,,,3h[4:1],,,,,3,,,1b,,,,1,8,2,7,3,6,4,5,,,2b/6b,,,,
{24}7h[16:1]/3,4,5,6,7,8,1,2,3,48,7,6,5,4,3,2,1,8,7h[12:1]/3h[12:1],,,,2h[12:1]/6h[12:1],,,,1h[12:1]/5h[12:1],,,,2h[12:1]/6h[12:1],,,,3h[12:1]/7hb[24:1],,,,,
{16}4,5,3,6,2,7,1,8,1,8,2,7,3,6,4,5,
{16}4,3,2,1,5,4,3,2,6,5,4,3,7,6,5,4,
{24}1,2,3,4,5,6,8,1,2,3,4,5,7,8,1,2,3,4,6,7,8,1,2,3,4/8s4[4:1],,,,,,,,,,,,,,,,,,,,,,,,
{16}7h[4:1]/2,3,4>1[8:1],,,,4,,,,,,2h[4:1]/7,6,5<8[8:1],,,,5,,,,,,18,,27,,,,,,15,26,3-8[8:1]/7-4[8:1]b,,,,37,,,,,,15,62,7-4[8:1]b/3-8[8:1],,,,73,,,,,,7-1[8:1],,3-5[8:1]b,,7,,3,,,,7h[2:1]/4>8[8:1],,3,,4,,,,,,,,8-4[8:1]b,,7,,6h[4:1]/8>7[2:1],,,,,,,,,,,,,,24,,2,,25,,2,,26,,2,,
75,,7,,74,,7,,73,,7,,5h,,4h,,3h,,2h,,1s5[8:1],,,,,,
{8},6h,5h,4h,3v1[8:1],,,,8h,7h,6h,5h,4v1[8:1],,,5-8[8:1],2h,3h,4h,5h,4h[8:1],,
{16}E4,B4,B5,E6,E1,B1,B2,E3,E7,B7,B8,E1,,,
{8}3h,4h,5h,6h[4:1],,5h,4h,3h,,7-5[8:1],,1-3[8:1],,4-8[8:1],,,3,2,1,8,7,6,5,4h[4:1],
{16}5,6,7,8,1,2,3,4,5,6,7,8,1,2,3,4,1s5[2:1]/5,,,,,,,,,,,,,,,,3/7s3[2:1],,,,1,,1,,,,,,,,,,4z8[2:1]/8,,,,,,,,,,,,,,,,1h[2:1],,,,8-4[8:1],,8,,,,1-3[8:1]b,,,,,,,,5s1[8:1],,,,,,,,,,,,2-4[8:1]/7v5[8:1],,27,,,,,,,,,,2h[8:1],,6h[8:1],,4b,,7,,7,,8,,8,,1,,1,,2,,2,,
{32}2-4[8:1]/7,,,,,,,,6-8[8:1]/2,,,,,,,,6/1-4[8:1],,,,,,,,1/7-3[8:1],,,,,,,,1z5s1[2:3]b/7,,,,,,,,,,,,,,,,,,,,,,,,,,,,,,,,,,,,,,,,,,,,,,,,,,,,,,,,,,,,,,,,
{16}E1,B1,B2,E3,E1,B8,B7,E7,E5,B4,B3,E3,E1,E8,E7,E6,E5,E4,E3,E2,E1,E8,E7,E6,E5,E4,E3,E2,E1/C,,,,4-8[8:1]/5,,3,,24,,1h[4:1],,,,,,
8-4[8:1]/7,,1,,2/8,,3,,5h[4:1],,,,,,5,,5,,5,,
5-1[8:1]/4,,6,,75,,8h[4:1],,,,,,
1-5[8:1]/2,,8,,7/1,,6,,7/4h[8:1],,,,5,6,7,8,1,2,3,4,5,6,7/3-8[8:1],,8,,,6,,,5-2[8:1],,8,,,6,,8-3[8:1],,,4,,,6,,5-2[8:1],,,8,,,6,,,1,2,3,4,51,8,7,6,15,2,3,4,8h[8:1]/5h[8:1],,,,
3,7,3,7,3,7,
{32}4hb[4:1],,,,,,8b,,,,,,8b,7,6,5,
{16}4-8[8:1],,3,,24,,1h[4:1],,,,,,
8-4[8:1]/7,,1,,2/8,,3h[4:1],,,,,,5,,5,,5,,5,,
5-1[8:1]/4,,6,,75,,8h[4:1],,,,,,
1-4[8:1]/2,,8,,7-5[8:1]/1,,,,73,,,,4-8[8:1],,3,,24,,,,
36,,6,,35,,3,,47,,7,,25,,2,,{8}3b/7b,1,3/5,7,6/4,2,3/5,8,{16}1,5,1,5,2,6,2,6,3,7,3,7,4,8,4,8,
{32}4,3,2,1,8,7,6,5,4/8-4[8:1],,,,,,,,,,,,1h[8:1],,,,,,2h[8:1]/8h[8:1],,,,,,3b/7b,,,,1-4[8:1],,,,,
,,,,,,,6-3[8:1],,,,,,,,,,,,2-7[8:1],,,,,,,,,,,,5-8[8:1],,,,,,,,,,,,1,,,,1,,,,28,,,,,,,,
{24}1-5[8:1]b,2,3,7-3[8:1]b,6,5,
{32}1-3<4[8:1],,,,7-5>4[8:1],,,,1,,,,7,,,,,,,,2-4[8:1],,,,1,,,,2/8,,,,8h[8:1],,,,,,,,,,,,7,,,,7h[4:1],,,,
{24}2,3,4,5,6,7,8,1,2,3h[4:1]/7v1[8:1],,,,,,,,,,,,
{16}2,6,2,6,3,7,3,7,,,1bx/3bx,,,6b/8b,,,4b/5b,,35,,2,,46,,7,,{32}8b,7,6x,5x,,,2b,3,4x,5x,,,8b,7,6x,5x,,,,,
{16}2,4,3,7,5,6,2,4,2,4,3,7,3-8[8:1],,,,5h[8:1],,,5h[8:1],,,1-4[8:1]/5,,,,6h[8:1],,,6h[8:1],,,5/6-4[8:1],,,,,,1h[8:1],,,1h[8:1],,,6h[8:1]/1,,
{32}2,,,,2,3,4,5,,,,,8/2h[4:1],,,,8,7,6,5,
{16},,2,5,3,5,4,5h[8:1],,,6h[8:1]/4h[8:1],,,7h[8:1]/3h[8:1],,,8h[8:1]/2h[8:1],,,1h[8:1],,,27,,2,,26,,2,,25,,2,,24,,2,,2h[16:1]/5h[8:1],,,,3,4,2,,
{24}1hx[8:1]/2,3,4,5,,,
8hx[8:1]/7,6,5,4,,,
{16}3b,4,3,6b,5,6,2b,1,2,7b,8,7,2b,6,2b,6,
{24}2bx,3,4,5,1bx,8,7,6,5,
{8}2x/4x,
{24}3bx/7bx,6,5,4,8bx,1,2,3,4,
{8}5x/7x,
{1}2bx-7[4:13]`6bx-3[4:13]b,,,,8q2q4q6q8[1:3],A1,A3,E
