&title=Nothing beats a Jet2holiday Sale Family YouTube advert
&artist=????????
&first=0
&des=Jet2Holidays
&lv_7=Jet 2
&inote_7=(123)
{32},1,2,3,4,5,6,7,8,1,2,3,4,5,6,7,8,
{64}1b/5b,1b,1b,1b,1b,1b,1b,1b,1b,1b,1b,1b,1b,1b,1b,1b,1b,,,,4,3,5,6,4,3,5,6,3,2,6,7,3,2,6,7,2,1,7,8,2,1,7,8,3,2,7,8,3,2,7,8,2,1,,,,,,B1f/B2f/B3f/B4f/B5f/B6f/B7f/B8f/E1f/E2f/E3f/E4f/E5f/E6f/E7f/E8f/Cf,,,,,,,,,B1f/B2f/B3f/B4f/B5f/B6f/B7f/B8f/E1f/E2f/E3f/E4f/E5f/E6f/E7f/E8f/Cf,,,,,,,,,B1f/B2f/B3f/B4f/B5f/B6f/B7f/B8f/E1f/E2f/E3f/E4f/E5f/E6f/E7f/E8f/Cf,,B1f/B2f/B3f/B4f/B5f/B6f/B7f/B8f/E1f/E2f/E3f/E4f/E5f/E6f/E7f/E8f/Cf,,
,,B1f/B2f/B3f/B4f/B5f/B6f/B7f/B8f/E1f/E2f/E3f/E4f/E5f/E6f/E7f/E8f/Cf/A1f/A2f/A3f/A4f/A5f/A6f/A7f/A8f,,,,,,,,,,,,,,,,,,,
(246)
{32}
1-4[32:1]*-3[32:1]*-5[32:1]*-6[32:1]*-7[32:1],,,,,,,,4/1-4[32:1]*-3[32:1]*-5[32:1]*-6[32:1]*-7[32:1]/3/7/5/6,,,,,,,,
(123)
{64}
1h[8:1]/2h[8:1]/3h[8:1]/4h[8:1]/5h[8:1]/6h[8:1]/7h[8:1]/8h[8:1],,,,,,,,,,,,,,,,,,,2,3,5,6,3,7,6,7,4,6,2,8,3,5,1,7,4,2,6,8,3,1,7,5,4,2,8,,,,,
{64}7!>2-6-3[1000#8:1]*>2-6-3[1000#8:1],,,,,,,,,8!<8[1000#8:1]/1!>1[1000#8:1],,,,,8!<8[1000#8:1]/1!>1[1000#8:1],,,,1b/8b/7b/6b/5b/4b/3b/2b,,,,,1!-6-3[1000#8:1]*-4[1000#8:1],,8!<8[1000#8:1]/1!>1[1000#8:1],,,,,,{96}18,27,36,45,36,27,18,2,3,4,5,6,7,8,17,26,35,43,25,16,78,1,,,,,,1b,,,,,,,,,,1b/2b,6b/7b,3b/5b,4b/6b,6b/2b,6b/7b,2b/8b,1b/7b,1b/7b,3b/2b,6b/4b,8b/2b,5b/6b,2b/3b,7b/1b,8b/2b,6b/7b,3b/5b,4b/6b,6b/2b,,,,,,,2b/8b,1b/7b,1b/7b,3b/2b,6b/4b,8b/2b,5b/6b,2b/3b,7b/1b,8b/2b,6b/7b,3b/5b,4b/6b,,,,,,,,,,,,,,,,,,,,,,,,,,1-5[1000#8:1]/7-3[1000#8:1],,,,,,,,,,
{256}B5,B4,B6,E7,E3,7,6,4,3,1,8,6,1,2,3,7,5,3,4,61,67,15,3,2,8,1,B2,C,A5,A3,D2,7,3,5,7,2,D6,D1,A5,A3,A8,E8,E6,C,3,5,6,{96},,,,,,,,,,,,,,,,,,,,,,,,,,,
{96}1!-4-7-2-6-3-5-8^2^7^4^3v1v7v5v2pp3pp6q1p5V38[1000#8:16]/5!pp4q3qq8p5-1-3-7-2-8-5^3^6^1^2v4v6v8v3qq2qq7p4q8V25[1000#8:16]/3!-5-7-2-6-3-5-8^2^7^4^3v1v7v5v2pp3pp6q1p5V38[1000#8:16],,,,,,,,,,,,,,,,,,,,,,,,,,,,,,,,,,1b/2b/3b/4b/5b/6b/7b/8b,,,,,,,1-4^6[1000#8:1],,,,,,,,,,7!>2-6-3[1000#8:1]*>2-6-3[1000#8:1],,,,,,,,,,,1b/2b/3b/4b/5b/6b/7b/8b,,,1b/2b/3b/4b/5b/6b/7b/8b,,,1b/2b/3b/4b/5b/6b/7b/8b,,,1b/2b/3b/4b/5b/6b/7b/8b,,,1b/2b/3b/4b/5b/6b/7b/8b,1b/2b/3b/4b/5b/6b/7b/8b,1b/2b/3b/4b/5b/6b/7b/8b,1b/2b/3b/4b/5b/6b/7b/8b,1b/2b/3b/4b/5b/6b/7b/8b,1b/2b/3b/4b/5b/6b/7b/8b,1b/2b/3b/4b/5b/6b/7b/8b,1b/2b/3b/4b/5b/6b/7b/8b,1b/2b/3b/4b/5b/6b/7b/8b,1b/2b/3b/4b/5b/6b/7b/8b,1b/2b/3b/4b/5b/6b/7b/8b,1b/2b/3b/4b/5b/6b/7b/8b,1b/2b/3b/4b/5b/6b/7b/8b,,,,,,,,,,,,,,,,
3,4,6,7,4,8,7,8,5,7,3,1,4,6,2,8,5,3,7,1,4,2,8,6,5,3,1,7,6,1,3,5,,,,,,,,,,,,,,,,{96}1!-4-7-2-6-3-5-8^2^7^4^3v1v7v5v2pp3pp6q1p5V38[1000#8:12]/5!pp4q3qq8p5-1-3-7-2-8-5^3^6^1^2v4v6v8v3qq2qq7p4q8V25[1000#8:12]/3!-5-7-2-6-3-5-8^2^7^4^3v1v7v5v2pp3pp6q1p5V38[1000#8:12]/1b/2b/3b/4b/5b/6b/7b/8b,
1-4^6[1000#8:1],7!>2-6-3[1000#8:1]*>2-6-3[1000#8:1],1b/2b/3b/4b/5b/6b/7b/8b,B8f/B1f/B2f/B3f/B4f/B5f/B6f/B7f/E1f/E2f/E3f/E4f/E5f/E6f/E7f/E8f/Cf/A1f/A2f/A3f/A4f/A5f/A6f/A7f/A8f,,,,,,,1b/2b/3b/4b/5b/6b/7b/8b,B8f/B1f/B2f/B3f/B4f/B5f/B6f/B7f/E1f/E2f/E3f/E4f/E5f/E6f/E7f/E8f/Cf/A1f/A2f/A3f/A4f/A5f/A6f/A7f/A8f,
E
