&title=南京夜无电波讯号
&artist=花水r
&first=0
&des=无
&lv_5=12
&inote_5=(120)
{16},,,,,C,,,
{4}5h[8:1]/4,4/3h[8:1],4/6-2[8:1],2,
{4}4/3h[8:1],4/6v7-1[4:1],{8}2,4,4,,
{4}5h[8:1]/4,4/3h[8:1],4/6-2[8:1],2,
{4}4/3h[8:1],4/6-8v2[4:1],{8}2,4,3,,
{4}5h[8:1]/4,4/3h[8:1],4/6-2[8:1],2,
{4}4/3h[8:1],4/6v7-1[4:1],{8}2,4,4,,
{8}4/5,3,4/6,7,{8}6-2[8:1]/4,,2,3,
{8}4/5-1[8:1],6,5/7,,5/4-8[8:1],3,4/2,,
{4}5-7[8:1]/7-5[8:1],,4-8[8:1],8,
{4}3-1[8:1]/1-3[8:1],,8-4[8:1],4,
{4}5-7[8:1]/7-5[8:1],,4-8[8:1],8,
{2}3-1[8:1]/1-5[8:1],6-8[8:1]/8-4[8:1],
{4}5-2[8:1]/1-4[8:1],,1-5[8:1],5,
{4}1-6[8:1]/5-8[8:1],,5-1[8:1],1,
{4}5-2[8:1]/1-4[8:1],,1-5[8:1],5,
{2}5q1[8:1]/8^5[8:1],4p8[8:1]/1^4[8:1],
{8}7-3[8:1],,4,2V47[4:1],,8h[4:1],,,2-6[8:1],,5,7s3[4:1],,1h[4:1],,,
{8}5<3[16:5],,4,4q6[4:1]*q7[4:1],,,,,
{2}5-2[8:1]/8-3[8:1],1-6[8:1]/4-7[8:1],
{8}8-4[8:1],,5,3pp2[4:1],,7h[4:1],,,1-5[8:1],,4,6V48[4:1],,2h[4:1],,,
{8}4>6[16:5],,5,5s1[4:1],,,,,
{2}8-5[8:1]/2-5[8:1],4v6[8:1]/6v4[8:1],
{16}8qq8[16:3],,1,,2,2,,3^6[8:1],,,7,,8,8,,,
{16}1/2,,3,,4/6,4/6,,{2}3-6[8:1]/7-2[8:1],{16},
{16}4/8-5[8:1],,4/8-3[8:1],,,,,4-8[8:1],,,4,,,,,,
{16}2<6[16:3]/6,,3,,4,4,,{2}5s1[16:3],{16},
{16}2-6[8:1],,8,,7,7,,5pp5[16:3],,,3,,2,2,,,
{16}8/7,,6,,5/3,5/3,,{2}2v4[8:1]*^7[8:1],{16},
{16}8/7,,6,,5/3,5/3,,{2}2v4[8:1]*^7[8:1],{16},
{16}8/7,,6,,5/3,5/3,,{2}1/7v6-4[4:1],{16},
{16}2-6[8:1],,3,,4,4,,7z3[16:3],,,8,,1,1,,,
{16}2/4,,3,,5/6,5/6,,{2}8qq3[4:1],{16},
{16}5v8[8:1],,4-6[8:1],,,,,1V75[16:3]*V35[16:3],,,1,,,,,,
{16}1/2,,3,,4/6,4/6,,{2}3-6[8:1]/7-5v4[4:1],{16},
{16}1pp1[16:3],,8,,7,7,,6V47[16:3],,,3,,2,2,,,
{16}1/8,,7,,4/6,4/6,,{2}3>6[16:3],{16},
{16}3/5,,2,,7/1,7/1,,{2}8-5[8:1],{16},
{16}4/5,,1/8,,7/3,7h[8:1]/3,,{64}2b,B2,C,B6f,,,,,{16},1bxv4-2-8-6b[16:9],,5bx>6[16:7],,1bx,,5bx,,,,,,,,
{4},4h[8:1]/5,
{4}5/6h[8:1],5/3v2-8[4:1],{8}7,5,5,,
{4}4h[8:1]/5,5/6h[8:1],5/3-7[8:1],7,
{4}5/6h[8:1],5/3-1v7[4:1],{8}7,5,6q2[32:31]*-3[1:1],,
