&title=DAYBREAK FRONTLINE
&artist=Orangestar
&first=0
&des=MikanStar
&lv_5=13+
&des_5=MikanStar
&inote_5=
(136){4},,,,4h[4:1],
{16}5,,,4,5<8[16:1],3,,,{8}4-8[16:1],3,
{4}4,{16}7h[16:3],,,8,7<4[16:1],1,,,{8}8>3[16:1],1,
{4}8,{16}5-1[16:1],,,4,5,3h[16:3],,,{8}8-4[16:1],7,
{4}8/3-7[16:1],{16}3/5,,,6,5,4h[16:3],,,{8}8,1,
{4}2b/5,{16}6/3,,,4,5,3,,,{8}4-1[16:1],6,
{4}4b/6-2[16:1],{16}6,,,3,4,5h[16:3],,,1,8,{8}7h[8:1],
{4}6b-2[16:1],{16}6/8,,,8,7,6h[16:3],,,1,2,{8}3h[8:1],
{4}4b-8[16:1],{16}4/3,,,2,3,4h[16:5],,,{8}1-5[16:1],7,
{4}1b/4-2[16:1],4-6[16:1],4-8[16:1],{8}7-5[16:1]/4-2[16:1],6,
{4}4b/7b-3[16:1],{16}7/1h[8:1],,,1,4-8[16:1],1,,,{8}2/4,3,
{4}4b-8[16:1]/7-5[16:1],4/7-3[16:1],7/1-5[16:1],4-8[16:1]/1-3[16:1],
4b/1b,{16}7h[16:3]/2h[8:1],,,2,7,2,6,3,5,4,5,4,
{8}5b<8[16:1],4-2[16:1],5,{16}4,1,,1,{8}2-5[16:1],1-6[16:1],2,
1b,4-8[16:1],7,{16}4,7,,7,{8}8-3[16:1],7-4[16:1],8,
7b,2-5[16:1],6,{16}2,6,,6,{8}5-2[16:1],6-1[16:1],5,
6b,3-8[16:1],7,{16}3,7,,7,{8}8-3[16:1],7-4[16:1],8,
7b,2,2h[8:1],{16}5,2,,4h[16:5],,3,{8}3,2,
{4}1h[4:1]/4-7[16:1],{8}4,{16}1,1,,8h[16:3],,,{8}1,2,
3,8h[8:1],3h[8:1],{16}7,6,5,3/4h[16:3],,,{8}3,1,
2h[4:1]/6h[4:1],{16},,,,2,6,4h[4:1],8h[16:5],,,,,,,{8}3h[8:1],
7h[8:1],3h[8:1],{16}6,3,,6h[16:3],,4,{8}4,{16}6,4,
{4}5<8[16:3],{16}5/1,2,3,4h[8:1],,,,,8,4,{8}8h[8:1],
4,7/3,6/2,{16}5/1,6/2,7/3,8/4h[8:1],,8,4,7,3,6h[16:5],
{8}2h[4:1],{16},,,,6/2,6/2,,3h[16:3]/7h[16:5],,,,,,,{8}2bv5[16:1],
8,2,{16}8,7,6,5h[16:3],,,{8}4,2,
{16}7bv4[16:1],,,1,{8}7/1,{16}2,2,,5h[16:3],,,{8}4>8[4:1],6,
{16}4/8>4[4:1],,,7,7,,,5,{4}5,{8}5<1[4:1],3,
5/1<5[4:1],2,3,{16}4,4,,2,3,4,{8}5,5,
5b/4b,4,{16}4,5,3,6,4,7,5,6,4,5,{8}3h[8:1],
4b,{16}3,5,{8}4h[8:1],{16}6,4,,8,,5h[8:1],,8,5,7,
3b,6,1,5,2b,7,4,8,3b,6,{8}1h[8:1],{16}5,1,7,3,
8b,4,6,2,4b,1,5,8b,1,2/6,3/7,4/8h[16:3],,5,{8}5-2[16:1],
4/7b,8/5,{16}7,6,5,1/4,2/5,3/6,4/7,5/8h[8:1],,1,2,3,
4b,8,5,6,3b,7,1,4,2b,6,3,8,7/4,6/3,5/2,4/1,
{4}3b/8h[4:1],{8}6v1[8:1],1<6[8:1],2-4[16:1],3,2,5,
1/6,7,{16}8b,2,6,3,8,4,6,3h[16:3],,4,{8}4-7[16:1],
5/2b,4/1,{16}2,3,4,5/8,4/7,3/6,2/5,4/1h[8:1],,8,7,6,
5b,1,7,2,6b,4,8,3,6b,2,4,1,2/5,3/6,4/7,5/8,
{4}6b/1h[4:1],{8}3v8[8:1],8>3[8:1],{16}6h[8:1],,,,,7,6,5,
{8}4h[8:1],{16}3,5,,6/4h[8:1],,8h[8:1],,4,,5,4,3/7,2/6,1/5,
{8}4h[4:1]/8h[4:1],,,6bz2[8:3]/2b-6[8:3],,,,,,,,7h[8:3]/3p8[8:5],
,,,,8<5[8:3],
,,5-2[8:3],,,,,7,
6,{16}5-1[16:1],,,4,5-7[16:1],3,,,{8}5,2h[8:1],
8,4/6h[8:1],8h[8:1],{16}5,1,6,2,{8}7h[8:1],5h[8:1],1,
4/8h[8:1],2h[8:1],6h[8:1],{16}1,5,2,6,{8}3h[8:1],7h[8:1],5,
{16}3,7,1,5,2,6,4,8,5,7,3,1,{8}4h[8:1],7h[8:1],
{16}4b,7,2,5,8b,4,2,6,4b,8,3,7,{8}1,5b/3-7[16:1],
2/4b,3/1,{16}1,2,3,4/8,7/3,6/2,5/1,8/4h[8:1],,8,1,2,
4/3b,5,6,7,1/8b,2,3,4,1/5b,4/8,3/7,2/6,1/5b,4,3,2,
{4}5b/1h[4:1],{8}3v8[8:1],8>3[8:1],{16}6h[8:1],,,,,5,6,7,
{8}8h[8:1],4,{16}8,3,6,1b,5,8,4,2h[8:1],,6,2-6[16:1],4,
{8}8b,1b/2,{16}8,7,6,5,4/8,5/1,6/2,7/3h[8:1],,8,7,6,
4/5b,3,2,1,8b/7,6,5,4,3/7b,8/4,5/1,6/2,3b/7,4,5,6,
{4}7h[4:1],{8}6v1[8:1],1<6[8:1],2-4[16:1],3,2,{16}5,5,
{8}3b,{16}6,3h[8:1],,7h[8:1],,5h[16:3],,,8,3h[16:3],,6,{8}6-1[16:1],
5/4b,3/6b,{16}2,3,4,1/5,8/4,7/3,6/2,1/5h[8:1],,1,6,3,
{8}4h[8:1],1h[8:1],{16}6h,1,7,8b,5h,2,4,8b,6h,3,5,1h,
{4}7h[4:1],{8}1v6[8:1],6v3[8:1],{16}8h[8:1],,,,,8,7,6,
{8}5h[8:1],4h[8:1],{16}5,4,7,3h[8:1],,6,1,8h[16:3],,2,{8}2-5[16:1],
1/8b,7/2b,{16}6,7,8,1/5,8/4,7/3,6/2,5/1h[8:1],,5,2,7,
{8}8h[8:1],5h[8:1],{16}2h,5,3,4b,1h,6,8,4b,2h,7,1,5h,
{4}3h[4:1],{8}5v2[8:1],2v7[8:1],{16}4h[8:1],,,,,4,3,2,
{8}1h[8:1],{16}8,2h[8:1],,7h[8:1],,8b,1,2,3,4/8,7/3,6/2,5/1,4/8,
{4}7b-2[16:1]/3b-6[16:1],{8}7/3,8h[8:3]/4h[8:3],{16},,,,,,,,8/4,
,,,,,,2/6h[16:5],,,,,{8}3,3h[8:11],
,7h[8:9],,,,,,,,,,,{4}8h[4:1],
4h[8:3],
{8}7h[8:1],,,6h[8:5]/3h[8:1],,,,,,,,,4h[8:1]/5h[8:1],
,,3h[2:1],
,,,6h[8:11],,,,,{4}5,
4,3,2-6[16:1],
2b,{16}7,,,1,8,2,,,{8}3/7-3[16:1],6/4,
{4}7b,{16}2,,,8,1,7,,,{8}6-1[16:1]/2-5[16:1],1/5,
{4}6b/2b,{16}8/4,,,7/3,,5,,,{8}6/2,4,
{4}3/5h[4:1],{16}1h[16:3],,,6h,8,5h,2,7h,{8}4v1[16:1]/8v5[16:1],6/2,
E
