&title=美しく燃える森
&artist=東京スカパラダイスオーケストラ [cover]
&first=0
&des=九号舞厅
&des_5=
&des_6=
&lv_5=1
&lv_6=13
&inote_5=(125)
E
&inote_6=(140.06){4},{16},,,,3h/1h,,,5,{8}4,6,
7pp2[2:1],,,3h[2:1],,,,,2qq6[2:1],
,,5h[2:1],,,,,6pp4[2:1],
,,3h[2:1],,,,4,
4,2-5[8:1],,6qq5[4:1]*pp7[4:1],,,,,6qq3[2:1],
,,2h[2:1],,,,,3pp7[2:1],
,,8h[2:1],,,,,7qq1[2:1],
,,2h[2:1],,,,,3/1,
{16}4,5,{8}4,5/4>5[8:3],,,,,{4}3-5[8:1],
{8}6,7-3[8:1],,4-1[8:1],,,,8h[4:1],
1,1,,2h[4:1],{4}1,
3-5[8:1],{8}7,7-3[8:1],,1-4[8:1],,5,
,6h[4:1],5,5,,4h[4:1],{4}5,
6-4[8:1],{8}3,2-6[8:1],,5<8[8:1],,,,1h[4:1],
8,8,,7h[4:1],{4}8,
6-4[8:1],{8}2,2-6[8:1],,8-5[8:1],,4,
,5/3,3/5,2-4[8:1],,2/5-1[8:1],,6,
8,2h[4:1],,1,2,3-1[8:1]/1-5[8:1],,,,6-3[8:1],
{4}2,1-5[8:1],5/1,
{8}4/6V85[4:1],3,,2h[4:1],,4,4>7[4:1],3,
,,,5h[4:1],,6,5,7,
1,7h[4:1],,8,7,6-8[8:1]/8-4[8:1],,,,3-6[8:1],
{4}7,{8}8-4[8:1],4,,3V14[4:1],
,,,7h[4:1],,5,5q2[4:1],6,
,,,3,4,{16}6,5,{8}6,4,
2/8>6[8:5],,,,,7,7,8,
8q5[4:1],{16}1>4[8:1],1,,,,,,,{8}6,8-4[8:1],1,
{4}8/2,{8}3,3,{4}5h[4:1],{8}4,6-3[8:1],
,,,4,{4}4>1[8:1],7<4[8:1],
1h[4:1],8,{8}5/6,7<4[8:1],,4,
,2,2,4,{4}3<6[8:1],8>3[8:1],
4h[4:1],5,{8}4/6,8>3[8:1],,4>5[8:3],
,5,5,4,4,{16}3,4,3,5,4,5,
{4}2V48[4:1],{8}8,6-8[8:1],,6-4[8:1]/2-6[8:1],,6/2,
,5/7<5[8:1],8,1>3[8:1],,1/4-8[8:1],,6/4,
{4}7V51[4:1],{8}1,3-1[8:1],,7<4[8:1]/3v8[8:1],,7/3,
,4/2>4[8:1],1,8<6[8:1],7,5-1[8:1],4,3/5,
{4}2qq3[8:3],{8}5,5p4[8:3],,,2<5[4:1],1,
,,,7,{4}7p3[8:1],3p7[16:3],
{8}5,5,,8/6,5,4,3/1,2,
8,8,4,{16}6,5,{8}6,{16}3,5,3,7,5,7,
{4}2V84[4:1],{8}8,6-4[8:1],,6-8[8:1]/2-6[8:1],,6/2,
,5/7<5[8:1],8,1>3[8:1],,1/4-8[8:1],,6/4,
{4}7V15[4:1],{8}1,3-1[8:1],,7<4[0.4284##0.2142]/3v8[0.4284##0.2142],,7/3,
,4/2>4[8:1],1,8<6[8:1],7,5-1[8:1],4,5/3>5[8:3],
,,5,4qq5[8:3],,,1,8p7[16:5],
,,,,6,4,5q2[4:1],3,
,3,4,4>7[4:1],,,6,4b,
{16},,2,6,4,6,3,3,{8}5,{16}1,8,2,8,{8}3,
{1}7b>6[4:11]/5bv2[8:1],
E
