&title=TRIGGER★HAPPY
&artist=P*Light
&first=0
&des=もふもふウサギ
&lv_5=14
&inote_5=(185){1},,
{24}2/8h[8:1],3,4,{4}5,{24}1/7h[8:1],2,3,{4}4,{16}3,,3,3,
{24}1,8,7,{4}6,{24}26,3,4,{4}5s1[8:1],,
{24}7/3h[8:1],6,5,{4}4,{24}2/6h[8:1],3,4,{4}5,{16}7,,7,7,
{4}8-4[8:1],8w4[8:1],8,2bV48[4:1]/8b,
{8}5,6V84[4:1],6,1,2,3,25,{16}6,5,{8}7,8,16,
{16}2,1,{8}3,4,34,25,
{8}16,3,48,6,{16}1,8,1,8,{32}1,2,3,4,5,6,7,8,
{4}1p8[4:1],8<2[4:1],5,8b,
{16}
5/6,,4,,7,1,,1,4-8[8:1],,4,,1b,,2,,
7/3,,4,,6,5,,5,8^5[8:1],,1b,,1,2b,3,,
26,,5,,2,8,,8,5-1[8:1],,5,,8b,,6,,
2,4,3b,5,4,6,5b,7,1,8,2b,7,3b,,,,
{16}
4/6,,7,,2,4,,4,1-5[8:1],,78,,1b,,6,,
7/3,,2,,7,5,,5,8-4[8:1],,3b,,3,2b,1,,
25,,8b,,47,,1b,,36,,8b,,1b-5[8:1],,27,,
1/8-4[8:1],,7,,2/8<2[4:1],,1,,8,,,,{32}8,7,6,5h[32:5],,,,,
{16}
1,,6,5,6,,47,,3,4,3,,25,,6,6,
1,,2,4,3q5[4:1],,3,,5<2[4:1],,,,8,,,,
5,,7,8,7,,45,,2,1,2,,4/7^4[8:1],,3,3,7-1[8:1],,1,,7qq3[8:3],,3,,
2h[16:1],,2h[16:1],,2h[16:1],,2h[16:1],,
51,,6,5,7,,48,,3,4,2,,18,,7,7,
1-5[8:1],,24,,1b,,6,6,3^8[8:1],,3,,{24}7b,6,5,{16}4,,
{8}25,3,48,6,{16}1,8,2,7,{32}3,4,5,6,7,8,1,2,
{4}7b/3>5[8:3]*qq5[8:3],,,1b,
{8}
38,,16,43,,25,,4pp2[8:5]/7pp3[8:5],,,,,,,,,
{16}
3,,3,,5,4,5,4,6,,7,,
{4}
3-5[8:1]/8,2-6[8:1],1-7[8:1],8w4[8:1],8b,
{16}
6,,57,,2,1,2,,4,,35,,7,8,7,,3,4,2,5,1-3[8:1],6,8-4[8:1],,
1-5[8:1],,8-6[8:1],,1,,8,,
3,,24,,5,4,6,,3,4,2,,6,4,8,,
1h[96:1]/3h[96:1],,5h[96:1]/7h[96:1],,
1h[96:1]/3h[96:1],,5h[96:1]/7h[96:1],,
1w5[8:1]/3,,,,1b,,,,
{8}
7b^4[8:1],,17,8b^3[8:1],,58,6,7,
4b-1[8:1]/8b-5[8:1],4b/8b,,,4v1[8:1]*v7[8:1],,4,,
2b^5[8:1],,82,1b^6[8:1],,41,3,2,
{32}
1b,2,3,,7b,6,5,,1b,2,3,,7b,6,5,,1bw5[8:1],2,{16}3,,,1b,,,,
3-8[4:1],,,5,,,6,,7,6,5,4,3pp7[2:1]/2,,,,
1,,1,,2pp1[8:3],,2,,2,,,,,,7,,
6-1[4:1]/5,,,4,,,3,,2,3,4,5,6qq2[2:1]/7,,,,
8,,8,,7,,7,,8-4[8:1],,,,1b,,,,
{4}
2>6[4:1],6<2[4:1],2>6[4:1],6V48[4:1],
8>5[4:1],5-1[8:1],{16}7,,6,,6,5,4-7[16:1]/2,,
,,1b-5[16:1],,,8b-4[16:1],,,2b-5[16:1],,,6b-3[16:1],,,8b-3[16:1],8,
,,6b-1[16:1],,,4b-8[16:1],,,5b-1[16:1],,,2b,,,4b/8b,37,
{2}6bq7[8:9]/2bq3[8:9],,,{16}8,1,8,,2/7,,,,
6/5h[4:1],,,,4h[8:5],,,,3,,,3,,,
3,,45,,6,5,6,,3h[2:1],,4,,,4,,,4,,
4h[4:1],,,,5h[8:5],,,,6,,,6,,,
6,,54,,3,4,3,,7h[2:1],,6,,,4,,,5,,
5h[8:1]/7h[8:1],,,,4h[8:1]/6h[8:1],,,,3h[8:1],,,3h[8:1],,,
3,,45,,6,5,6,,2,,3h[8:1],,,3h[8:1],,,3,,
4h[8:1]/2h[8:1],,,,5h[8:1]/3h[8:1],,,,6h[8:1],,,6h[8:1],,,
6,,5/4-8[8:1],,3,,4/5-1[8:1],,6,,45,,,,8b,,,,
{8}3qq8[2:1]/5,,6,6,,7,7,1,
{8}6-1[8:1]/4,,3,3,8-4[8:1],2,2,,
{8}3qq8[2:1]/5,,6,6,,7,7-5[8:1],2,
{8}3^8[8:1],,7-3[8:1],7,3,1,1,{16}1,8,
{4}
2-6[8:1],3,4-8[8:1],5,6-2[8:1],7,8-4[8:1],1,
{8}25,8,47,1,{16}5,4,6,3,7,2,8,1,
{4}7pp5[8:3],1v4[8:1],,2b/7b,
{16}
3b,,2,,6,5,,5,
7b,,6,,4,5,,5,
3b,,2,,6,5,,5,
7b,,6,,4,5,,5,
3,6,4,5,2,7,4,5,
1,,{24}28,3,4,5,,,17,6,5,{8}4,
2b/7b,,3b/6b,4b-8[8:1]/5b-1[8:1],,4b/5b,,
{16}
2/6,,3,,7,5,,5,8-4[8:1],,21,,3b,,1,,
53,,6,,1,7,,7,5^2[8:1],,8b,,8,7b,6,,
7/3,,6,,2,4,,4,1-5[8:1],,78,,6b,,8,,
7,5,6b,4,5,3,4b,2,8,1,7b,2,6b,,,,
{16}
5/3,,6,,2,8,,8,5-1[8:1],,47,,8b,,8,,
2/6,,3,,7,1,,1,5-1[8:1],,2b,,2,3b,4,,
83,,7b,,16,,2b,,63,,8b,,1b-5[8:1],,27,,
1/8-4[8:1],,7,,2/8<2[4:1],,1,,8,,,,{32}8,7,6,5h[32:5],,,,,
{16}
1,,2,4,3,,84,,7,5,6,,35,,2,2,
8,,3,4,2p8[4:1],,2,,8<3[4:1],,,,5,,,,
8,,7,5,6,,51,,2,4,3,,4/8-6[8:1],,3,3,8^3[8:1],,1,,8/5pp1[8:3],,5,,
2h[16:1],,2h[16:1],,2h[16:1],,2h[16:1],,
38,,6,5,7,,18,,3,4,2,,16,,2,2,
8-4[8:1],,,,8b,,3,3,5^8[32:3],,,,{32}1b,2,3,4,1,2,3,4,
{8}15,3,48,6,{16}2,8,3,7,{32}4,5,6,7,8,1,2,3,
{4},{32}1bw5[8:1],8,7,6,5,4,3,2,{4},1b-5[20.5#72:1]/8b-4[20.5#72:1],
2h[4:5]/7h[8:11],,,,,{32},3,4,,,6,5,,{4},,1b/8b,,,
