&title=SON OF SUN
&artist=Hosoe Shinji
&first=0
&des=reflectW
&lv_4=11+
&lv_5=13
&inote_4=(200)
{8},,,,,,,,
{8},,,,,,,,
{8}1s5[2:1],,,,,,,,
{8}8>4[2:1]*<4[2:1],,,,,,,,
{8}5s1[2:1],,,,,,,,
{8}4w8[2:1],,,,,,,,
{16}3h[4:1],,4,,5,,6h[4:1],,5,,4,,3,,,,
{8}7h[8:3],,,4h[8:3],,,5,,
{8}6h[8:3],,,3h[8:3],,,4,,
{8}5-7[8:1],,,2-4[8:1],,,8,,
{16}6h[4:1],,5,,4,,3h[4:1],,4,,5,,6,,,,
{8}7h[8:3],,,4h[8:3],,,5,,
{8}6h[8:3],,,3h[8:3],,,4,,
{8}1b-5[4:1],,,,8b-4[4:1],,,,
{16}3h[8:1],,,,3h[8:1]/5h[8:1],,,,3-8[8:1]/5-8[8:1],,,,,,,,
{16}6h[8:1],,,,6h[8:1]/4h[8:1],,,,6v1[8:1]/4v1[8:1],,,,,,,,
{16}3h[8:1],,,,3h[8:1]/5h[8:1],,,,3-8[8:1]/5-8[8:1],,,,,,,,
{16}6h[8:1],,,,6h[8:1]/4h[8:1],,,,6v1[8:1]/4v1[8:1],,,,,,,,
{16}3h[8:1]/5h[8:1],,,,3h[8:1]/5h[8:1],,,,3-8[8:1]/5-8[8:1],,,,,,,,
{16}6h[8:1]/4h[8:1],,,,6h[8:1]/4h[8:1],,,,6v1[8:1]/4v1[8:1],,,,,,,,
{16}3h[8:1]/5h[8:1],,,,3h[8:1]/5h[8:1],,,,5-8[8:1]/3h[4:1],,,,,,,,
{8}1bs5[4:1],,,,8bz4[4:1],,,,
{16}3-1[8:1],,,,,,,,6-8[8:1],,,,,,,,
{16}3,,4,,2,,5,,3,,4,,2,,5,,
{16}3-1[8:1],,,,,,,,6-8[8:1],,,,,,,,
{16}3,,4,,2,,5,,3,,6,,3,,6,,
{16}4-1[8:1],,,,,,,,5-8[8:1],,,,,,,,
{16}3,,4,,2,,5,,3,,4,,2,,5,,
{16}4-1[8:1],,,,,,,,5-8[8:1],,,,,,,,
{16}4,,5,,3,,6,,2,,7,,{32}1b,,,,,,,,
{8}8,3,8,3,8h[4:1],,3,,
{8}2,5,2,5,2h[4:1],,5,,
{8}6,1,6,1,6h[4:1],,1,,
{8}2pp5[2:1]/8qq5[2:1],,,,,,,,
{8}1,6,1,6,1h[4:1],,6,,
{8}7,4,7,4,7h[4:1],,4,,
{8}3,8,3,8,3h[4:1],,8,,
{8}1>5[2:1]*<5[2:1],,,,,,,,
{8}1q4[8:28],,,,,,,,
{8}8b,,,,,,,,
{8}7b,,,,,,,,
{8}6b,,6b,,5b,,5b,,
{8}5q8[8:28],,,,,,,,
{8}4b,,,,,,,,
{8}3b,,,,,,,,
{8}2b,,2b,,1b,,1b,,
{16}34,,,,47,,,,34,,,,84,,,,
{16}34,,,,4h[8:1]/6h[8:1],,,,5h[8:1]/7h[8:1],,,,68,,,,
{16}65,,,,52,,,,65,,,,15,,,,
{16}65,,,,5h[8:1]/3h[8:1],,,,4h[8:1]/2h[8:1],,,,31,,,,
{16}34,,,,47,,,,34,,,,84,,,,
{16}34,,,,4h[8:1]/6h[8:1],,,,5h[8:1]/7h[8:1],,,,68,,,,
{16}7<2[1:1],,,,8q1[4:3],,,,,,,,,,,,
{16},,,,,,,,27,,36,,45,,,,
{8}7/2b,,1p4[2:1],,7,,6,,
5,,3,,5h[8:2],,,,
{8}2/7b,,8q5[2:1],,2,,3,,
4,,6,,4h[8:2],,,,
{8}7/2b,,1p3[2:1],,7,,7,,
7,,4,,5h[8:2],,,,
{8}2/7b,,8q6[2:1],,2,,2,,
2,,5,,4h[8:2],,,,
{8}3/4-6[8:1],,8,,3/7-5[8:1],,8,,
{8}3/4-6[8:1],,8,,3/7-5[8:1],,8,,
{8}3/4-6[8:1],,8,,3/7-5[8:1],,8,,
{8}4q5[2:1]/3>6[2:1],,,,,,,,
{8}6/5-3[8:1],,1,,6/2-4[8:1],,1,,
{8}6/5-3[8:1],,1,,6/2-4[8:1],,1,,
{8}6/5-3[8:1],,1,,6/2-4[8:1],,1,,
{8}5b/8b,58,58,41,41,41,32,,
{16}4b/5b,,3b/6bV85[8:3],,,,1b,,2b,,3b,,4b,,,,
{8},,2bpp4[4:1]/7bqq5[4:1],,,,,,
{16}5b/4b,,6b/3bV14[8:3],,,,8b,,7b,,6b,,5b,,,,
{32}2bq5[32:16]/7bp4[32:16],,,,,,,,,,,,,,,,,,,,,,,,,,,,,,,,
{16}4b/5b,,3b/6bV47[8:3],,,,8b,,1b,,2b,,3b,,,,
{8},,2bv4[4:1]/7bv5[4:1],,,,,,
{16}5b/4b,,6b/3bV52[8:3],,,,1b,,8b,,7b,,6b,,,,
{32}1b/8b,,,,,,,,,,,,1b/8b,,,,,,,,,,,,1b/8b,,,,,,,,
{8}2-7[8:1]/3,,3-6[8:1],,2-7[8:1],,3-6[8:1],,
{8}2-7[8:1],,3-6[8:1],,2h[8:1],,2b,,
{8}2-7[8:1],,3-6[8:1],,2-7[8:1],,3-6[8:1],,
{8}2h[8:1],,2b,,3h[8:1],,3b,,
{8}2-7[8:1]/3,,3-6[8:1],,2-7[8:1],,3-6[8:1],,
{8}2-7[8:1],,3-6[8:1],,2h[8:1],,2b,,
{8}2-7[8:1],,3-6[8:1],,2-7[8:1],,3q4[2:1],,
{8}2h[8:6],,,,,,5b>5[4:8]*<5[4:8],,
{1},,,,E
&inote_5=(200)
{8},,,,,,,,
{8},,,,,,,,
{8}1h[8:3],,,8V27[4:1],,3,,,
{8}65,,,6h[8:2]/5h[8:2],,,,,
{8}5h[8:3],,,4V63[4:1],,7,,,
{8}2/1<5[2:1]*>5[2:1],,,,,,,,
{16}35,,4,5,4h[8:4],,6,,6,,7,,8,,,,
{8}7-5[8:1]/8,,7,4-8[8:1],,4,5,,
{8}7-5[8:1]/8,,7,4-8[8:1],,4,5,,
{8}7-5[8:1]/8,,7,4-8[8:1],,4,5,,
{16}62,,5,4,5h[8:4],,3,,3,,2,,1,,,,
{8}2-4[8:1]/1,,2,5-1[8:1],,5,4,,
{8}2-4[8:1]/1,,2,5-1[8:1],,5,4,,
{8}1bs5[8:1]*v3[8:1],,1b,,8b-6[8:1]*z4[8:1],,8b,,
{16}35,,4,,35,,4,,3-1[12:1]/5-7[12:1],,4,,,,,,
{16}8-5[8:1],,8,,2-5[8:1],,2,,7,,7,,4,,4,3,
{16}26,,5,,36,,4,,4-2[12:1]/6-8[12:1],,5,,,,,,
{16}1-4[8:1],,1,,7-4[8:1],,7,,2,,2,,5,,5,6,
{16}37,,4,,63,,4,,3-1[12:1]/5-1[12:1],,4,,,,,,
{16}8p4[8:1],,8,,2q6[8:1],,2,,7,,7,,4,,4,3,
{16}26,,5,,36,,5,,4-8[12:1]/6-8[12:1],,5,,,,,,
{8}1bz5[8:1]/2bs6[8:1],,2b/1b,,7bs3[8:1]/8bz4[8:1],,7b/8b,,
{16}2-4[8:1],,4-8[8:1],,2,,,,7V51[4:1],,5,,7,,,,
{16}3,,4,,2,,1,,3,,4,,1,,8,,
{16}2-4[8:1],,4-1[8:1],,2,,,,7V58[4:1],,5,,7,,,,
{16}2,,1,,3,,4,,5h[8:1]/6h[8:1],,,,3h[8:1]/4h[8:1],,,,
{16}7-5[8:1],,5-1[8:1],,7,,,,2V48[4:1],,4,,2,,,,
{16}6,,5,,7,,81,,6,,5,,8,,12,,
{16}7-5[8:1],,5-8[8:1],,7,,,,2V41[4:1],,4,,2,,,,
{16}5h[8:1],,4,,6h[8:1],,3,,7h[8:1],,2,,{32}8,7,6,5,4,3,2,1,
{8}8-4[8:1],3,8,3,2-6[8:1]/3-5[8:1],,,,
{8}7-3[8:1],2,7,2,1-5[8:1]/2-4[8:1],,,,
{8}6-2[8:1],1,6,1,8-4[8:1]/1-3[8:1],,,,
{8}6b/2b,,,34,45,56,67,,
{8}1-5[8:1],6,1,6,7p3[8:1]/6^4[8:1],,,,
{8}2-6[8:1],7,2,7,8p4[8:1]/7^5[8:1],,,,
{8}3-7[8:1],8,3,8,1p5[8:1]/8^6[8:1],,,,
{8}3b/7b,,,76,65,54,45,,
{8}2pp5[8:5],,,,,,,7,
{8}7pp2[8:5],,,,,,,4,
{8}4qq1[8:5],,,,,,,8,
{8}8b-3[8:1]*-5[8:1],,8b,,1b-5[8:1],,1b,,
{8}6qq8[8:5],,,,,,,2,
{8}2qq4[8:5],,,,,,,7,
{8}7pp5[8:5],,,,,,,3b,
{16}4b,5,4,5,4b,5,4,5,3b,6,3,6,3b,6,3,6,
{16}2h[8:1],,,,1h[8:1]/4h[8:1],,,,8V27[4:1],,3-6[8:1],,8,,3,,
{16},,1-4[8:1],,5,,1-5[8:1],,6,,1-6[8:1],,7,,1,,
{16}7h[8:1],,,,8h[8:1]/5h[8:1],,,,1V72[4:1],,6-3[8:1],,1,,6,,
{16},,8-5[8:1],,4,,8-4[8:1],,3,,8-3[8:1],,2,,8,,
{16}2h[8:1],,,,1h[8:1]/4h[8:1],,,,1V38[4:1],,4^7[8:1],,1,,4,,
{16},,2-4[8:1],,5,,2-5[8:1],,6,,2-6[8:1],,7,,2,,
{16}8qq3[1:1],,,,8b,,,,,,,,4h[1024:1],,,,
{16},,,,4h[1024:1],,,,4-8[8:1]/5-1[8:1],,36,,45,,,,
{8}7h[8:14]/2b,,1,,1,,2,2,
,3,3,,4,,4,5b,
6b-8[8:1],,4h[8:10]/6b,,1,,8,8,
,7,7,,6,,5-7[8:1],,
{8}5b/3h[8:14],,8,,8,,7,7,
,6,6,,5,,5,4b,
3b-1[8:1],,3b/5h[8:4],,8,,1,1,
{16}1b,8,1,8,2b,7,2,7,3b,6,3,6,4b,5,4,5,
{8}3,4,35,4,3-1[8:1]/5h[4:1],,,,
{8}6,5,64,5,6-8[8:1]/4h[4:1],,,,
{8}2,3,25,4,2-4[8:1]/5h[4:1],,,,
{8}7,6,74,5,7-5[8:1]/4-2[8:1],,74,,
{8}6,5,64,5,6-8[8:1]/4h[4:1],,6,,
{8}3,4,35,4,3-1[8:1]/5h[4:1],,3,,
{8}7,6,74,5,7-5[8:1]/4h[4:1],,7,,
{16}1b,8,1,8,2,7,2,7,3,6,3,6,4,5,4,5,
{16}3b-5[8:1],,5bV31[4:1],,,,1b-7[8:1],,7bV13[4:1],,,,3b-5[8:1],,,,
{8}7b,,6bpp5[16:6],,4b,,3,,
{8}2b/4,3b/5,4b/6,5b/7,8h[4:1],1,1b,,
{32}1b/8bqq5[32:20],27,36,54,,,,,3,,,,3,,,,3^8[8:1],,,,,,,,,,,,,,,,
{16}6b-4[8:1],,4bV68[4:1],,,,8b-2[8:1],,2bV86[4:1],,,,6b-4[8:1],,,,
{8}2b,,3bqq4[16:6],,5b,,6,,
{16}3b,6,3b,6,2,7,2b,7,1b-5[8:1],8,1,8,1b,,,,
{32}8,7,6,5h[32:12],,,,,,,,,1,2,3,4,,,,,,,,,81,72,63,54,,,,,
{8}3<6[8:1],7,3,7-4[8:1],3,7,1<6[8:1],3,
{8}1,3-7[8:1],1,3,1w5[8:1],2,1b,,
{8}3<6[8:1],7,3,7-4[8:1],3,7,1<6[8:1],3,
{8}1w5[8:1],3,1b,,8w4[8:1],71,8b,,
{8}6>3[8:1],2,6,2-5[8:1],6,2,8>3[8:1],6,
{8}8,6-2[8:1],8,6,8w4[8:1],7,8b,,
{8}6>3[8:1],2,6,2-5[8:1],6,2,8>6[4:1],6,
{8}8,,,18,27,36,4b>4[4:8]*<4[4:8]/5,,
{1},,,,E
&inote_7=(200)
{8},,,,,,,,
{8},,,,,,,,
{8}8-2-4-6-8[2:1]/7-3-7[8:3],,,,,,,,
{8}1-4^3[2:1]/8qq6[2:1],,,,,,,,
{8}8-2v5^6[2:1]/7-3[2:1],,,,,,,,
{8}2^7^2^7^2[2:1]*v4v2v4v2v4[2:1],,,,,,,,
{16}35,,4,5,4h[8:4],,6,,6,,7,,8,,,,
{8}7-5[8:1]/8,,7,4-8[8:1],,4,5,,
{8}7-5[8:1]/8,,7,4-8[8:1],,4,5,,
{8}7-5[8:1]/8,,7,4-8[8:1],,4,5,,
{16}62,,5,4,5h[8:4],,3,,3,,2,,1,,,,
{8}2-4[8:1]/1,,2,5-1[8:1],,5,4,,
{8}2-4[8:1]/1,,2,5-1[8:1],,5,4,,
{8}1bs5[8:1]*v3[8:1],,1b,,8b-6[8:1]*z4[8:1],,8b,,
{16}35,,4,,35,,4,,3-1[12:1]/5-7[12:1],,4,,,,,,
{16}8-5[8:1],,8,,2-5[8:1],,2,,7,,7,,4,,4,3,
{16}26,,5,,36,,4,,4-2[12:1]/6-8[12:1],,5,,,,,,
{16}1-4[8:1],,1,,7-4[8:1],,7,,2,,2,,5,,5,6,
{16}37,,4,,63,,4,,3-1[12:1]/5-1[12:1],,4,,,,,,
{16}8p4[8:1],,8,,2q6[8:1],,2,,7,,7,,4,,4,3,
{16}26,,5,,36,,5,,4-8[12:1]/6-8[12:1],,5,,,,,,
{8}1bz5[8:1]/2bs6[8:1],,2b/1b,,7bs3[8:1]/8bz4[8:1],,7b/8b,,
{16}2-4[8:1],,4-8[8:1],,2,,,,7V51[4:1],,5,,7,,,,
{16}3,,4,,2,,1,,3,,4,,1,,8,,
{16}2-4[8:1],,4-1[8:1],,2,,,,7V58[4:1],,5,,7,,,,
{16}2,,1,,3,,4,,5h[8:1]/6h[8:1],,,,3h[8:1]/4h[8:1],,,,
{16}7-5[8:1],,5-1[8:1],,7,,,,2V48[4:1],,4,,2,,,,
{16}6,,5,,7,,81,,6,,5,,8,,12,,
{16}7-5[8:1],,5-8[8:1],,7,,,,2V41[4:1],,4,,2,,,,
{16}5h[8:1],,4,,6h[8:1],,3,,7h[8:1],,2,,{32}8,7,6,5,4,3,2,1,
{8}8-4[8:1],3,8,3,2-6[8:1]/3-5[8:1],,,,
{8}7-3[8:1],2,7,2,1-5[8:1]/2-4[8:1],,,,
{8}6-2[8:1],1,6,1,8-4[8:1]/1-3[8:1],,,,
{8}6b/2b,,,34,45,56,67,,
{8}1-5[8:1],6,1,6,7p3[8:1]/6^4[8:1],,,,
{8}2-6[8:1],7,2,7,8p4[8:1]/7^5[8:1],,,,
{8}3-7[8:1],8,3,8,1p5[8:1]/8^6[8:1],,,,
{8}3b/7b,,,76,65,54,45,,
{8}2pp5[8:5],,,,,,,7,
{8}7pp2[8:5],,,,,,,4,
{8}4qq1[8:5],,,,,,,8,
{8}8b-3[8:1]*-5[8:1],,8b,,1b-5[8:1],,1b,,
{8}6qq8[8:5],,,,,,,2,
{8}2qq4[8:5],,,,,,,7,
{8}7pp5[8:5],,,,,,,3b,
{16}4b,5,4,5,4b,5,4,5,3b,6,3,6,3b,6,3,6,
{16}2h[8:1],,,,1h[8:1]/4h[8:1],,,,8V27[4:1],,3-6[8:1],,8,,3,,
{16},,1-4[8:1],,5,,1-5[8:1],,6,,1-6[8:1],,7,,1,,
{16}7h[8:1],,,,8h[8:1]/5h[8:1],,,,1V72[4:1],,6-3[8:1],,1,,6,,
{16},,8-5[8:1],,4,,8-4[8:1],,3,,8-3[8:1],,2,,8,,
{16}2h[8:1],,,,1h[8:1]/4h[8:1],,,,1V38[4:1],,4^7[8:1],,1,,4,,
{16},,2-4[8:1],,5,,2-5[8:1],,6,,2-6[8:1],,7,,2,,
{16}8qq3[1:1],,,,8b,,,,,,,,4h[1024:1],,,,
{16},,,,4h[1024:1],,,,4-8[8:1]/5-1[8:1],,36,,45,,,,
{8}7h[8:14]/2b,,1,,1,,2,2,
,3,3,,4,,4,5b,
6b-8[8:1],,4h[8:10]/6b,,1,,8,8,
,7,7,,6,,5-7[8:1],,
{8}5b/3h[8:14],,8,,8,,7,7,
,6,6,,5,,5,4b,
3b-1[8:1],,3b/5h[8:4],,8,,1,1,
{16}1b,8,1,8,2b,7,2,7,3b,6,3,6,4b,5,4,5,
{8}3,4,35,4,3-1[8:1]/5h[4:1],,,,
{8}6,5,64,5,6-8[8:1]/4h[4:1],,,,
{8}2,3,25,4,2-4[8:1]/5h[4:1],,,,
{8}7,6,74,5,7-5[8:1]/4-2[8:1],,74,,
{8}6,5,64,5,6-8[8:1]/4h[4:1],,6,,
{8}3,4,35,4,3-1[8:1]/5h[4:1],,3,,
{8}7,6,74,5,7-5[8:1]/4h[4:1],,7,,
{16}1b,8,1,8,2,7,2,7,3,6,3,6,4,5,4,5,
{16}3b-5[8:1],,5bV71[4:1],,7,,1b-3[8:1],,3bV57[4:1],,5b,,7b-1[8:1],,,,
{8}1,,5bpp5[16:6],,4b,,3,,
{8}2b/4,3b/5,4b/6,5b/7,8h[4:1],1,1b,,
{32}1b/8bqq5[32:20],27,36,54,,,,,3,,,,3,,,,3^8[8:1],,,,,,,,,,,,,,,,
{16}6b-4[8:1],,4bV28[4:1],,2,,8b-6[8:1],,6bV42[4:1],,4b,,2b-8[8:1],,,,
{8}8,,4bqq4[16:6],,5b,,6,,
{16}3b,6,3b,6,2,7,2b,7,1b-5[8:1],8,1,8,1b,,,,
{32}8,7,6,5h[32:12],,,,,,,,,1,2,3,4,,,,,,,,,81,72,63,54,,,,,
{8}3<6[8:1],7,3,7-4[8:1],3,7,1<6[8:1],3,
{8}1,3-7[8:1],1,3,1w5[8:1],2,1b,,
{8}3<6[8:1],7,3,7-4[8:1],3,7,1<6[8:1],3,
{8}1w5[8:1],3,1b,,8w4[8:1],71,8b,,
{8}6>3[8:1],2,6,2-5[8:1],6,2,8>3[8:1],6,
{8}8,6-2[8:1],8,6,8w4[8:1],7,8b,,
{8}6>3[8:1],2,6,2-5[8:1],6,2,8>6[4:1],6,
{8}8,,,18,27,36,4b>4[4:8]*<4[4:8]/5,,
{1},,,,E
