&title=畏光症-silent spiral-
&artist=Evalia / 诗岸
&first=0.01
&des=(还在吧)
&des_6=(还在吧)
&lv_6=13+
&inote_6=(114){4},{1},{4},,,{6}2h[6:1],
4h[6:1],5h[6:1],7pp6[1:1],,,,,,,,,3h[6:1],
1h[6:1],5h[6:1],6qq3[1:1],,,,,,,,,7h[6:1],
5h[6:1],4h[6:1],2qq3[1:1],,,,,,,,,6h[6:1],
8h[6:1],4h[6:1],3h[6:1],2h[6:1],3q7[3:2],
{1},{24}1h[6:5],
,,,,,,,,,,5h,,,,,{6}5h,5h,
{4}3/6h[4:1],{12}4,4,5,{4}3h[4:1],{12}1,1,2,
{6}8h[4:1],{12}5,5h[6:1],,1<6[6:1],{6}3h,2,{12}1,1,
{4}8/5h[4:1],{12}2,2,4,{4}3h[4:1],{12}7,7,5,
{6}6h[4:1],{12}4,4,7,7,{8}5/8,1-6[24:1]/5-2[24:1],{4}1/5,
1>5[4:1],{12}6,7,8,{4}1<5[4:1],{12}4,3,2,
{4}1-5[6:1],{12}5,6,7,{48}8,1h[48:7],,,,,,,{6}4h[6:1],6h[6:1],
{4}2h[4:1],{12}7,6,5,{4}3/4-6[8:1],{12}2,3,4,
{4}6/5-1[8:1],{12}7,6,5-1[12:1],{6}4-6[12:1],,8h,
1/7h[6:1],{12}5,6,{6}4h[6:1],3<6[24:5],{12},,,,7>1[8:1],
7,,5q1[24:5],,2,{6}2,3h[3:1],,6h[6:1],
{12}8,7,{6}1h[6:1],2<7[24:5],{12},,,,4qq5[12:5],
,,,,5p4[3:1],{2}5,
{6}7h[6:1],{12}5,6,{6}4h[6:1],2q7[4:1],,,{1}1pp2[2:1]*qq8[2:1],
{6}3h[6:1],{12}1,2,{6}8h[6:1],6qq4[4:1],,,5,
5v4[6:1],1,1,,6,
7b/2bpp4[6:1],3/8<4[6:1],1,3>8[8:1],{12},5p4[32:7],5,,{4}6>2[6:1],
7,6qq4[6:1],{12}1,1,8,
{4}5/7>2[32:5],{12}5,5,6,{4}3/7<4[8:1],{12}1p4[6:1],1,,{4}2<4[4:1],
3,{12}1,1>5[6:1],5,5qq5[4:1],,,{3}8V61[4:1],
{6}5,3V52[4:1],,1,
{4}7<4[8:1],1p8[32:7],{2}2>7[4:1],
{4}8qq1[4:1],{12}1>5[16:3],1,,{4}3,{12}1,7/2h[6:1],,{6}1qq4[3:1],
{12}2,3<6[4:1],{3}3,{6},,7h[6:1],
{12}1,8,{6}2h[6:1],3<6[4:1],{12},,,,{4}1-6[6:1],
2/1s5[3:1],{2}1,
{6}3h[6:1],{12}1,2,{6}8h[6:1],6>3[4:1],,,{1}5pp7[2:1]*p1[2:1],
{6}6h[6:1],{12}4,5,{6}3h[6:1],2-6[24:5],,,{1}1w5[2:1],
{6}2h[6:1],{12}4,3,{6}8h[6:1],6>3[4:1],,,8,
7/3,2/6,5/1q5[4:1]*p5[4:1],,,,,,,,,8b/1b,
{12}6,5,{6}7h[6:1],6>3[6:1],{12},1<6[6:1],1,,{4}4>1[6:1],
5p8[6:1],6h[4:1],{12}1,2,3,
{4}1/4h[4:1],{12}8,7,6,{4}5/8>3[6:1],{12}5<8[6:1],5,,{4}2>5[6:1],
1q6[6:1],{12}8,8,7,7h[4:1],,,{3}6>2[3:1],
{6}3,1>5[3:1],,4,
{4}6<1[6:1],3<6[6:1],2h[4:1],{12}7,8,1,
{4}2/4h[4:1],{12}3,5,,{4}7/5h[4:1],{12}7<4[6:1],7,,{4}2<7[6:1],
5>2[6:1],8<5[6:1],1p4[6:1],
{2}1,{4}7h,5h,
{6}2/1h[6:1],{12}4,6h[6:1],,8,{6}4h[6:1],{12}2,8h[6:1],,4,
{6}6h[6:1],{12}7,5h[6:1],,2>4[12:1],{2}4<6[12:1],
{6}8/1h[6:1],{12}6,8h[6:1],,4,{6}2h[6:1],{12}1,3h[6:1],,7,
{6}5h[6:1],{12}6,3h[6:1],,1q5[8:1],{2}2>4[12:1],
{6}8h[6:1]/7-1[12:1],{12}6,2,,3,{6}3-5[12:1],{12}2,6,,8,
{6}5h[6:1],{12}6,3h[6:1],,4v1[48:7],{2}2V46[8:1],
{6}8h[6:1]/1-7[12:1],{12}2,6,,5,{6}5-3[12:1],{12}6,2,,1,
{6}4h[6:1],{12}3,6h[6:1],,4>2[12:1],{2}8<6[12:1],
{6}4h[6:1]/1>3[12:1],{12}8,5,,6,{6}6>4[12:1],{12}7,3,,1,
{6}1-7[12:1],{12}2,6,,4qq5[48:11],{2}4<7[48:7],
{6}5h[6:1]/8-5[12:1],{12}8,5,,2,{6}4h[6:1]/1-4[12:1],{12}1,4,,7,
{4}8/5q3[4:1],{12}7,,5,{4}5h[4:1],3qq5[48:17],
{6}3/4,5p4[3:1],,7,8>6[12:5],,3,
1,3,7/5qq6[12:5],,,6q7[12:5],
7,,1,8q1[12:5],,2,
3,4,5/8qq1[12:5],,,2,
3qq5[12:5],,5,7pp3[24:11],,6,
6,5,2h/4pp3[12:5],,,3,
2pp6[2:1],,1,8z4[12:5],,{2}5h[2:1],
{6}2<4[4:1],3h[6:1],{48},,,,,,,,2,
1,8,7>5[4:1],,,,,{6}5,6,{48}7,8,1,2-6[48:5],,,,,{12}4,3>8[8:1],{6}3,
{4}5p4[32:7],6>2[6:1],7h[6:1],{12}1,8,7,
{6}5/6-3[8:1],{12}7h,8h,1h,2h,{6}4h/3-6[8:1],{12}2,1,8,7,
{4}5/6<1[8:1],4q1[6:1],{12}3,3<1[4:1],2,2h[6:1],{48},,,,,,,,3,
4,5,6>8[4:1],,,,,{6}8,7,{48}6,5,4,3-7[48:5]*-7[48:5],,,,,{12}1,2>5[8:1],{6}2,
{4}8q1[32:7],7>3[6:1]*<3[6:1],7,{12}4p8[8:1],5,6,
{4}8pp7[4:1],{12}7<3[16:3],7,,{4}5,{12}7s3[24:5]*v2[24:5],8/1,,{3}7,
{6}4q6[3:1],7>2[6:1],,,8b/1b,
{12}6,5,{6}7h[6:1],6>3[6:1],{12},1<6[6:1],1,,{4}4>1[6:1],
5p8[6:1],6h[4:1],{12}1,2,3,
{4}1/4h[4:1],{12}8,7,6,{4}5/8>3[6:1],{12}5<8[6:1],5,,{4}2>5[6:1],
1q6[6:1],{12}8,8,7,7h[4:1],,,{1}6>7[2:5],
{4},,,,,,,,6h[4:1],
8h[4:1],4h[4:1],5v4[4:1],
E
