&title=Dolphika
&artist=HiTECH NINJA
&first=-0.15
&des=自称・超絶扫键、登場!
&des_5=自称・超絶扫键、登場!
&lv_5=14
&inote_5=(155)
{4},
{1},
{8}Ch[2:1],,,,,,
{4}1-7-3-5[2:1]*-3-7-5[2:1],,,,7z3[2:1]/3s7[2:1],,,,4-8b[2:1]/8V64b[2:1],,,,
{4}2-4-8[16:9],,7-5[16:1],7,
{4}6s2[2:1]/2s6[2:1],,,,8V64-8[2:1]/4V28-4[2:1],,,,1V35b[2:1]*-5b[2:1],,,,
{4}6-8-4[16:9],8,3-1[16:1],3,
{8}5h[4:3]/1,,2,,3,,4,,4h[4:3]/5,,6,,7,,8,,8h[4:3]/1,,2,,3,,4,,4h[4:3]/8,,7,,6,,5,,
{8}6h[2:1],5,4,3,3h[2:1],4,5,6,
{8}6h[8:3],5,4,3h[4:1],4,6h[8:1],5,3/6,
{16}4,5,4,5,3,6,3,6,
{16}2,7,2,7,1,8,1,8,
{32}1,2,3,4,5,6,7,8,
{32}1,2,3,4,5,6,7,8,
{4}1bw5[8:1],,
{8}7xh[8:3],8,1,2,2xh[8:2],1,8,7,
{32}B1,B2,B3,B4,B5,B6,B7,B8,E1,E2,E3,E4,E5,E6,E7,E8,1,2,3,4,5,6,7,8,1,2,3,4,5,6,7,8,
{4}1b/5b,
{24}6,5,4,3,2,1,8h[4:1],,,,,,
{24}2,1,8,7,6,5,4h[4:1],,,,,,
{24}7,8,1,2,3,4,
{16}5/1b,,2b,,3b,,4b,,
{16}7,8,6,1,5,2,4,3h[16:3],,,5,3,6,4,7,5,
{24}7,8,1,2,3,4,5,6,7,8,1,,
{16}2,8,3,7,4,6,5,7/4,,,,,
{24}3,4,5,6,7,8,1h[4:1],,,,,,
{24}7,8,1,2,3,4,5h[4:1],,,,,,
{24}2,1,8,7,6,5,
{16}4/8b,,7b,,6b,,5b,,
{16}2h[4:1],,,,1,,,3,5,4,,7,8,,16,,
{24}1x,2,3,4,,,1x-5[8:1],8,7,6,,,1x>4[8:1]*<6[8:1],,,,,,1bw5[8:1],,,,,,1b,,,,,,
{16}1,8,1,8,1,8,2,7,3,6,4,5,3,4,2,5,1,6,8,7,
{16}1,2,3,4,8,7,6,5,2,3,4,5,2,3,4,5,8,7,6,5,8,7,6,5,1,8,2,7,3,6,4,5,3,6,2,7,
1b-5[8:1]/8b-4[8:1],,,,1b/8b,,,,3,6,2,7,1,8,2,7,3,6,4,5,
{24}3x,2,1,
7,6,5,
3x,2,1,
7,6,5,
4x,3,2,
8,7,6,
4x,3,2,
8,7,6,
{8}1x/5x,1x/5x,2x/6x,2x/6x,3x/7x,3x/7x,4x/8x,4xh[8:1]/8x,
{24}1x,2,3,4,5,6,7x/3x,
2,1,8,7,6,5x/1x,
8,7,6,5,4,3xw7[8:1],,,,,,
{8}3b,,1x-4[8:1]/5x-8[8:1],,1<6[8:1]/5>2[8:1],,1/5,,
1b/5b,,7x-5[8:1]/3x-5[8:1],,7-1[8:1]/3-1[8:1],,7/3,,
7b/3b,,6x-3[8:1]/2x-7[8:1],,6<1[8:1]/2>5[8:1],,6/2,,
2b-6[8:1],,2h[8:1],,7b-3[8:1],,7h[8:1],,
{8}2b,,7x-5[8:1]/3x-1[8:1],,7-1[8:1]/3-5[8:1],,7/3,,
8b/4b,,2x-4[8:1]/6x-4[8:1],,2-8[8:1]/6-8[8:1],,2/6,,
2b/6b,,3xv5[8:1]/7xv5[8:1],,3v2[8:1]/7v8[8:1],,3/7,,
1b-5[8:1],,1h[8:1],,8b-4[8:1],,8h[8:1],,
{8}3h[8:4],,,
{16}7,8,1,2,3,4,5,6,7,8,
{8}3p2[4:1],,7,,7p6[4:1],,3,,
{16},2,3,4,5,6,7,8,1h[8:2],
,6,5,4,3,2,1,8h[8:2]/4-1[8:1],,,,4,,,,8-5b[8:1],,8,,8,,,,
{16}4>1[8:1]*<7[8:1],,4,,4,,,,8,,8h[8:1],,2,1,8,7,6,5,4,3,2h[4:1],,
8,7,6,5,4,3,2,1,8,7h[16:2],,
{16}3,4,5,6,7,8,1h[4:1],,,
6,5,4,3,2,1,8x-4[8:1],,,,8x/3x,,,,2x,,2x,,2xw6[8:1],,,,
{1}2b-4V68-4[2:7],,,,
{2}6h[1:1],,4h[1:1],,1>8[1:1],,1s5[2:1],Ch[4:1],
{8}6h[4:3]/E1,,E2,,E3,,E4,,3h[4:3]/E8,,E7,,E6,,E5,,4h[4:3]/5,,6,,7,,8,,8h[4:3]/1,,2,,3,,4,,
{8}6h[2:1],5,4,3,3h[2:1],4,5,6,
{8}6h[8:3],5,4,3h[4:1],4,6h[8:1],5,3/6,
{16}4,5,4,5,3,6,3,6,
{16}2,7,2,7,1,8,1,8,
{32}1,2,3,4,5,6,7,8,
{32}1,2,3,4,5,6,7,8,
{4}1bs5[8:1]*z5[8:1],,
{8}7xh[8:3],8,1,2,2xh[8:2],1,8,7,
{8}6xh[8:3],5,4,3,3xh[8:2],4,5,6,
{16}2,6,2,6,3,7,3,7,4,8,4,8,3,7,3,7,
{32}2x,3,4,5,6,7,8,1,2x/6xw2[8:1],5,4,3,2,1,8,7,
{4}6b,8b/4b,
{24}1-5[8:1],2,3,4-2[8:1],,,
{16}1,,4,,
{24}5x-1[8:1]*>2[8:1],,,7x,,,5x,,,,,,
{16}82,,3,7,2,6,1,5,8-3[8:1]/4-7[8:1],,16,,84,,,,
{24}8-4[8:1],7,6,5-7[8:1],,,
{16}8,,5,,
{24}4x-8[8:1]*<7[8:1],,,2x,,,4x,,,,,,
{16}1-5[8:1],,2,,1/6-8[8:1],,7,,6/2-4[8:1],,1,,
{32}8h[16:1]/2,,,,8h[16:1],,,,
{24}4-8[8:1],3,2,1-3[8:1],,,
{16}4,,1,,
{24}8x-4[8:1]*-6[8:1],,,2x,,,8x,,,,,,
{16}53,,2,6,3,7,4,8,5-2[8:1]/1-6[8:1],,48,,51,,,,
{24}5-1[8:1],6,7,8-6[8:1],,,
{16}5,,8,,
{24}1x-5[8:1]*-3[8:1],,,7x,,,1x,,,,,,
{16}6h[4:1],,,,5,4,3,2,5,6,7,8,5,4,3,2,
{16}7x-4[8:1],,8x,8x,,1x,1x,,
{24}2,3,4,5,6,7,2,3,4,5,6,7,
{16}2x-5[8:1],,1x,1x,,8x,8x,,
{24}7,6,5,4,3,2,7,6,5,4,3,2,
{16}7x-3b[8:1],,8,,7b/1x-6-8-2[4:1],,2,,1,,4,,
{32}5x,6x,7x,,2x,3x,4x,,
{16}1x-5b[8:1],,8,,1b/3x-6-4-2[4:1],,2,,3,,8,,
{32}7x,6x,5x,,2x,1x,8x,,
{16}6x-1[8:1],,5x,5x,,4x,4x,,
{24}3,2,1,8,7,6,3,2,1,8,7,6,
{16}3x-8[8:1],,4x,4x,,5x,5x,,
{24}6,7,8,1,2,3,6,7,8,1,2,3,
{16}7x-3b[8:1],,8,,7b/1x-6-8-2[4:1],,2,,1,,4,,
{32}5x,6x,7x,,2x,3x,4x,,
{16}6-2b[8:1],,5,,6b/4x-7-5-3[4:1],,3,,4,,1,,
{32}8x,7x,6x,,3x,2x,1x,8x,7b>3-1-6-4b[4:7]/Ch[4:8],
