&title=●◎
&artist=Mylta、VOLTA、原口沙輔、椎乃味醂
&first=0.02
&des=2●◎3
&lv_5=13+
&des_5=2●◎3
&inote_5=
(170){4},{1},,{4},,,{8},2h[8:13]/8h[8:13],
,,,,,,,,,,,,,,{2}3h[4:1]/7-4[8:1],
{4}2h[4:1]/6-1[8:1],{8}6,2,
,3-1[8:1],5,3,6-8[8:1],4,6,3,
{2}6h[4:1]/2-5[8:1],{4}7h[4:1]/3-8[8:1],{8}3,7,
,6-8[8:1],4,6,3-1[8:1],5,3,6,
{4}7-4[4:1],8,1-6[4:1],2,
3-8[4:1],4,5<4[8:3],1,
,1h[8:1]/5h[8:1],3h[8:1]/7h[8:1],{8}5<8[8:1]/1>4[8:1],4/8,
{2}5-1[8:1]/1-5[8:1],{4}3/7,1w5[8:1],
{32},B1,Cf,B6/B5/B4,,,,,,,,,,,,,{4}2h[4:1]/8-4[8:1],{8}8,2,
,2-5[8:1],6,2,7-4[8:1],3,7,3,
{2}6h[4:1]/2-4[8:1],{4}7h[4:1]/1-5[8:1],{8}1,7,
,E3,C,E7,1>4[8:1],2,5w1[8:1],6,
5x,,,3,8<5[8:1],7,4w8[8:1],3,
4x,,,6h[8:1],8h[8:1],2h[8:1],4h[8:1],6,
{4}7-4[8:1]/3v8[8:1],3/7,{8}6,2V86V42[8:3],6,2,
,8>8[8:5]*<8[8:5],8,8,,,,,{1}D1/D8`A8f,
{8}2,E1,2,E8,2,E7,2,E6,
{4}6x,6,6,6,
{8}6,E5,6,E4,6,E3,6,E2,
{4}1xh[8:1],1h[8:1],1h[8:1]/8-6[8:1],1h[8:1]/8-4[8:1],
1h[8:1]/8<3[8:3],1h[8:1],1h[8:1],1h[8:1],
5h[8:1],5h[8:1],3qq4[16:5],5pp4[16:5],
,3-8[8:1],6-1[8:1],E5f,
{8}7h[8:1],5,6h[8:1],4,5h[8:1],3,4qq4pp4[4:3],2h[8:5],
{4}4x,,,2,
{8}2h[8:1],4,3h[8:1],5,4h[8:1],6,5pp5qq5[4:3],7h[8:5],
{4}5x,,,7,
{8}6-8[8:1],4,6,4,6-2[8:1],3,6,3,
3-1[8:1],5,3,5,3-7[8:1],6,3,6,
{1}Cfh[2:3]/1x-5-1[1:1],
{4},,B5/E5/B4/B3/B6,1b/8b,
{8}7-5[8:1],6,7-1[8:1]/2-4[8:1],3,{4}7b/2b,{8}7,3,
8<5[8:1],4,8,2,8>3[8:1],4,8,6,
8-6[8:1],4-2[8:1],8-4[8:1],4-8[8:1],{4}8b,{8}1,7,
2-6[8:1],6V48[4:1],2,7,{4}1bw5[8:1],1b,
{8}2-5[8:1],1,8<4[8:1],1,{32}4bx,3x,2x,1x,{8}8x,6,2,
6v1[8:1],2>5[8:1],6,2,7v4[8:1],3>8[8:1],7,3,
6-1[8:1],6,2,2,{32}8bx/2bx,7x/3x,6x/4x,5x,,,,,{8}1>4[8:1],2,
1/5<8[8:1],6,5/1-5[8:1],2,{4}1w5[8:1],1b,
{8}2-4[8:1],3,2-8[8:1]/7-5[8:1],6,{4}2b/7b,{8}2,6,
1>4[8:1],5,1,7,1<6[8:1],5,1,3,
1-3[8:1],5-7[8:1],1-5[8:1],5-1[8:1],{4}1b,{8}8,2,
7-3[8:1],3V51[4:1],7,2,{4}8bw4[8:1],8b,
{8}7-4[8:1],8,1>5[8:1],8,{32}5bx,6x,7x,8x,{8}1x,3,7,
3v8[8:1],7<4[8:1],3,7,2v5[8:1],6<1[8:1],2,6,
3-8[8:1],3,7,7,{32}1bx/7bx,2x/6,3x/5x,4x,,,,,{8}8<5[8:1],7,
8/4>1[8:1],3,4/8-4[8:1],7,{4}8<5[8:1]*>3[8:1],8b,
{2}B5/B1/B7/B3/Cf,{4}6<1[4:1],{8}1,2,
3,4-8[4:1],,8,,7v1[4:1],,1<4[8:3],
,,{4}2h[8:1],2h[8:1],{8}2-4[8:1]/6-4[8:1],1/7,
{4}6-8[8:1]/2-8[8:1],6/2,{2}6h[4:1]/2h[4:1],
{4}7b/3b,8<5[4:1],{8}3,2,{4}1>4[4:1],
{8}6,7,{4}8<5[4:1],{8}3,2,{4}1-5[8:1],
1/5,{8}6,3,7/2,2/7,{4}7V13[4:1]/2V86[4:1],
,,{2}4-8[8:1]/5-1[8:1],
{32}A8,D8/E8,A7,D7/E7,A6,D6/E6,A5,D5/E5,A4,D4/E4,A3,D3/E3,A2,E2/D2,A1,D1/E1,{8}A8f/4b>1[8:1]*<7[8:1],4,{16},,,,,A8,
B8,C,B4,A4,{8}3,5,2,6,1,
{4}7>3>7[2:1],{16}A1,B1,C,B5,{4}A5,3bh[2:1],
{8},,7-4[8:1],4<7[8:1],7>2[8:1],2V48[4:1],{4}3,
{2}1bV35[4:1],{4}7<4[8:1],{8}7,3,
{4}2v5[8:1],6,7<6-4[8:1],{8}3-8[8:1],3,
,5,{4}5-7[8:1],2xh[8:1]/5-3[8:1],8xh[8:1]/5-8[8:1],
4xh[8:1]/5-2[8:1],6xh[8:1]/5-1[8:1],5/3xh[8:1],2/8,
{8}2,6,{4}1-5[8:1],{8},,7,3,
{2}8-4[8:1],{4}5/3h[4:1],{8}6,2,
1/7,8,{4}7/1>4[8:1],{8},,8/2,1,
{2}2/8<5<8[2:1],3h[2:1],
{8}7,6/4,{4}3/7-4[8:1],{8},,2,5/3,
{2}6/2-5[8:1],{4}7<4[8:1],{8}3,2,
1-6[8:1],,,4-7[8:1],,,{4}2qq5[4:3],
,,{2}E1f/B8/B1,
{8}8-4[8:1]/4-8[8:1],2/6,,,{4}B3/B7,{8}6-2[8:1]/2-6[8:1],4/8,
,,,,{4}3/7h[4:1],{8}4,7,
8-5[8:1]/3-6[8:1],2/1,,,{4}C,{8}6-3<7[2:1]/1-4>8[2:1],7/8,
,,,,{2}A8/A7/D8f,
{8}8-5[8:1]/5-8[8:1],6/7,,,{4}C,{8}4-1-7-3[2:1]/1-4-6-2[2:1],3/2,
,,,,{4}A2/A3/D3f,{8}5,4,
6pp5[8:3],,,3,,3,4,2,
6,5,{4}7h[2:1],{2}1bh[4:1],
6h[4:1]/2-5[8:1],{4}7h[4:1]/3-8[8:1],{8}3,7,
,6<8[8:1],5,4,3>1[8:1],4,5,6,
{2}3h[4:1]/7-4[8:1],{4}2h[4:1]/6-1[8:1],{8}6,2,
,3>1[8:1],4,5,6<8[8:1],5,4,3,
{4}2>5[4:1],1,8>3[4:1],7,
6<1[4:1],5,4-2<7-5[8:3],8,
,8h[8:1]/4h[8:1],6h[8:1]/2h[8:1],{8}4>1[8:1]/8<5[8:1],5/1,
{2}4-8[8:1]/8-4[8:1],{4}B6/B2/E6/B5/B1/E2,8w4[8:1],
{32},B8,Cf,B3/B4/B5,,,,,,,,,,,,,{4}6h[4:1]/1-5[8:1],{8}1,6,
,7-4[8:1],8,1,2-5[8:1],1,8,7,
{2}3h[4:1]/7-5[8:1],{4}2h[4:1]/8-4[8:1],{8}8,2,
,E7,C,E3,8<5[8:1],7,4w8b[8:1],3,
E5/E4/A4f,,,7,1>4[8:1],2,5w1b[8:1],6,
E5/E6/A5f,,,4/3,7/1,5/6,2/8,4/3,
{1}1/Ch[1:1],
{8},1<8<7<6>5>4>3>2<1b[2:1],1<1[8:3],1,{32},,,,,,,,,,,,,,,,7bx,
E7,E6,A5,8bx,B8,C,B4,7bx,E7,E6,A5,8bx,B8,C,B4,7bx,E7,E6,A5,,,,,{8}1h[8:1],{24}6,5,4,
{8}2h[8:1],{24}7,6,5,{8}3h[8:1],{24}8,7,6,{8}3-6-1b[4:1]/5-2-7[4:1],3x/5x,,,{4}D8/D1/A8f,
{32}2bx,E3,E4,A4,1bx,B1,C,B5,2bxqq7[2:1],E3,E4,A4,,,,,{8}5h[16:1],5h[16:1],
4h[16:1],4h[16:1],5h[16:1],5h[16:1],{24}8V62[4:1]*-5-1b[4:1],1x,2x,3x,,,{4}8x,
A1/A2/D2f,{32}8bx,E8,E7,E6,8bx,E1,E2,E3,8bx,E8,E7,E6,,,,,{8}2-8b[8:1],6-4[8:1],
2>5b[8:1],6<1[8:1],2-6b[8:1],6-2[8:1],{4}2,8b-5[8:1]*-3[8:1],
D8/D1/A8f,{32}1bx,E2,E3,E4,1bx,E1,E8,E7,1bx,E2,E3,E4,,,,,{8}8<5[8:1],{24}1,2,3,
{8}8-4[8:1],{24}2,3,4,{8}8-6[8:1],{24}1-5[8:1],2,3,{8}8-4b[8:1],1,{4}8b,
E1f/A8/D8/E8/E2/D2/A1,{32}2bx,E3,E4,A4,1bx,B1,C,B5,2bx,E3,E4,A4,,,,,{8}8h[8:1],{24}3,4,5,
{8}7h[8:1],{24}2,3,4,{8}6h[8:1],{24}1,2,3,{8}4-7-2[4:1]/6-3-8b[4:1],4x/6x,,,{4}D2/D1/A1f,
{32}7bx,E7,E6,A5,8bx,B8,C,B4,7bxpp2[2:1],E7,E6,A5,,,,,{8}4h[16:1],4h[16:1],
5h[16:1],5h[16:1],4h[16:1],4h[16:1],{24}1V37[4:1]*-4-8b[4:1],8x,7x,6x,,,{4}1x,
A7/A8/D8f,{32}1bx,E2,E3,E4,1bx,E1,E8,E7,1bx,E2,E3,E4,,,,,{8}7-1b[8:1],3-5[8:1],
7<4b[8:1],3>8[8:1],7-3b[8:1],3-7[8:1],{4}7,1b-6[8:1]*-4[8:1],
D1/D2/A1f,{32}8bx,E8,E7,E6,8bx,E1,E2,E3,8bx,E8,E7,E6,,,,,{8}1>4[8:1],{24}8,7,6,
{8}1-5[8:1],{24}7,6,5,{8}1-3[8:1],{24}8-4[8:1],7,6,{8}1-5b[8:1],8,{32}1b,B1,Cf,B5,,,,,{4}7h[2:1]/3h[2:1],
,,2h[4:3]/8>6[4:3],
,,,,5h[2:1]/3h[2:1],
,,7h[4:3]/1<3[4:3],
,,,,{2}8-4[4:3],
{4}2,1V35[4:3],
,,{2}6,
6V82-4[4:3],{4}4,5-7-1-3[4:3],
,,{2}5,
6pp1[4:3],{4}2,1w5[2:1],
,,,E7/E3/Ch[4:1],
E
