&title=サラバイサラバイ
&artist=とあ
&first=1.17
&des=Ragna
&wholebpm=164
&demo_seek=58.7
&demo_len=24
&des_5=Ragna
&lv_5=12+
&inote_5=(164){8}4,5,{64}
4h[1024:1],5h[1024:1],,,,,,,,,,,,,,,3h[1024:1],5h[1024:1],,,,,,,,,,,,,,,2h[1024:1],5h[1024:1],,,,,,,,,,,,,,,{8}5,4,{64}
4h[1024:1],5h[1024:1],,,,,,,,,,,,,,,4h[1024:1],6h[1024:1],,,,,,,,,,,,,,,4h[1024:1],7h[1024:1],,,,,,,,,,,,,,,{4}2h[4:1],
4,7h[4:1],5,18,
27,36,45,3h[1:1],
4,5,6,7h[4:3],
5,4,3,28,
3h[2:1],4,5h[64:17],1h[1024:1],{8}
15,26,37,,48,37,2b/6b,,
1,8,2,7,3,6h[2:1],,5,
,3h[4:1],,4,{64}2h[1024:1],5h[1024:1],,,,,,,{8},17,,
6h[4:1],,5h[8:3],,7,7,,3,
5,2,6,4,8,8,,1,
8,2,7,3h[2:1],,4,,6h[4:1],
,5,{64}7h[1024:1],4h[1024:1],,,,,,,{8},28,,3h[4:1],,
4h[8:3],,2,2,,6,5,7,{64}
1,8,,,,,,,,,,,,,,,2,7,,,,,,,,,,,,,,,{4}
6p5[2:1],5,4,3,
2q3[2:1],5,6,7,
8p7[2:1],3,2,1,
8q1[2:1],5,6,7,{8}
8,7,26,,1,2,37,,
4h[4:3]/8,,7,,6,,5,,
3V14[2:1],,4,,5,,6,,
7z3[2:1],,8,,1,,2,,
1^4[2:1],,5,,6,,7,,
8^5[2:1],,4,,3,,2,,
1V35[2:1],,4,,5V71[2:1],,7,,
8h[4:3],,,,,,1,,
6,7,84,,3,2,15,,
2/6h[4:3],,3,,4,,5,,
7-3[2:1],,4,4,,2,,1,
1-4[2:1],,5,,6,,7,,
8p4[2:1],,,,,,,,
2q6[2:1],,,,,,,7-2[16:7],
7,,,3-6[16:7],3,,,7-2[16:7],
7,,,3-6[16:7],3,,,,
,,8q5[2:1],,3,,2,,
1p4[2:1],,5,,6,,7,,
48,37,26,,15,26,37,,
6,2,5,4,8b,,26,37,{64}
4h[1024:1],8h[1024:1],,,,,,,,,,,,,,,3h[1024:1],7h[1024:1],,,,,,,,,,,,,,,2h[1024:1],6h[1024:1],,,,,,,,,,,,,,,{8}26,37,{64}
4h[1024:1],8h[1024:1],,,,,,,,,,,,,,,3h[1024:1],7h[1024:1],,,,,,,,,,,,,,,2h[1024:1],6h[1024:1],,,,,,,,,,,,,,,{4}14,
15,16,17,18,{64}
1,8,,,,,,,,,,,,,,,2,7,,,,,,,,,,,,,,,3,6,,,,,,,,,,,,,,,{8}4/5h[2:1],3,
2^5[8:1],,2,,8b,,5/4h[2:1],6,
7^4[8:1],,7,,1b,,45,,
2-5[8:1],,6,,7-4[8:1],,3,,
2/5h[4:1],3,4-1[8:1],,8b,,27,18,{64}
2h[1024:1],7h[1024:1],,,,,,,,,,,,,,,3h[1024:1],6h[1024:1],,,,,,,,,,,,,,,4h[1024:1],5h[1024:1],,,,,,,,,,,,,,,{8}36,45,{64}
3h[1024:1],6h[1024:1],,,,,,,,,,,,,,,2h[1024:1],7h[1024:1],,,,,,,,,,,,,,,1h[1024:1],8h[1024:1],,,,,,,,,,,,,,,{4}1-5[8:1]/8,
81,8-4[8:1]/1,18,18,
27,36,4b/5b,{8}36,27,
1^4[8:1]/8h[4:1],,1,,1b,,36,27,
8^5[8:1]/1h[4:1],,8,,8b,,27,,
1-5[8:1],,6,,8-4[8:1],,3,,
15,26,37,,48,37,2b/6b,,
1,8,2,7,3,6h[2:1],,5,
,2h[4:1],,4,1-5[8:1]/5,,6,,
7h[4:1],,4h[4:1],,5h[8:3],,1,1,
,6,5,7,4,8,3,12,
,1,8,2,7,3h[2:1],,4,
,7h[4:1],,5,8-4[8:1]/4,,3,,
2h[4:1],,5h[4:1],,4h[8:3],,8,8,
,3,4,2,15,26,37,48,{4}
5V38[2:1],8,7,6,
5V74[2:1],4,3,2,
1V35[2:1],5,6,7,
8V26[2:1],4,3,2,{64}
1b-5[4:3],5h[1024:1],{1},E
