&title=Disorder
&artist=HyuN Feat.yuri
&first=0
&des=MXCustard
&lv_5=14
&inote_5=(193){4},,{8}4/6h[8:3],{4},{8}1,
{2},{8}3h[8:3],{4},{8}8,
{2},{8}5h[8:3],{4},{8}1,
{2},{8}4h[8:3],{4},{8}8,
{2},{8}4/6h[4:1],3,2,1,
{2}8,{8}5/3h[4:1],6,7,8,
{2}1,{8}4/6h[4:1],3,2,1,
{1}8w4[1:2],
{2},,,{8}6/2V48[4:1],
6,2,7,
,7,1,2,3/7V51[4:1],3,7,2,
,3,8-3[8:1],2,8-5[8:1],4,8,3V52[4:1],
,5,6,7,8/1,{16}6,5,7,4,5,2,
4,3,6,5,8,1,4,3,{8}7V51[4:1],8,7,2,
,2,8,7,6/2V48[4:1],1,2,7,
,6,1-6[8:1],7,1-4[8:1],5,1,6V47[4:1],
,4,3,2,1/8,{16}6,5,7,4,5,2,
4,3,6,5,8,1,4,3,{4}6V85[4:1],{8}2,1V72[4:1],
,4,{4}5V74[4:1],{8}3,2V83[4:1],,3V15[4:1],
4,5,6,7,{4}8V27[4:1],{8}4,3V14[4:1],
,6,{4}7V16[4:1],{8}5,4V25[4:1],,5V31[4:1],
6,7,8,7,6/8b,7,6,5,
4/2,{16}3,4,3,4,{8}3,7h[8:1],{16}5,6,{8}3h[8:1],{16}5,4,
{8}8h[8:1],{16}1,7,2,6,3,5,4h[16:3],{8},{16}5h[16:3],{8},{16}6,5,
7,5,8,5,1,5,1,5,8,6,5,7,4,6,4,6,
2,3,4,5,3,4,5,6,{8}7/1b,2,3,4,
5/7,{16}6,5,6,5,{8}6,2h[8:1],{16}4,3,{8}6h[8:1],{16}4,5,
{8}1h[8:1],{16}8,2,7,3,6,4,5h[16:3],{8},{16}4h[16:3],{8},{16}3,4,
2,4,1,4,8,4,8,4,1,3,4,2,5,3,5,3,
7,6,5,4,6,5,4,3,{8}2/8b,7,3,5,
4/2,{16}3,4,3,4,{8}3,7h[8:1],{16}5,6,{8}3h[8:1],{16}5,4,
{8}8h[8:1],{16}1,7,2,6,3,5,4h[16:3],{8},{16}5h[16:3],{8},{16}6,5,
7,5,8,5,1,5,1,5,8,6,5,7,4,6,4,6,
2,3,4,5,3,4,5,6,{8}7/1b,2,3,4,
5/7,{16}6,5,6,5,{8}6,2h[8:1],{16}4,3,{8}6h[8:1],{16}4,5,
{8}1h[8:1],{16}8,2,7,3,6,4,5h[16:3],{8},{16}4h[16:3],{8},{16}3,4,
2,4,1,4,8,4,8,4,1b,3,4,2,5,3,5,3,
7b,6,5,4,6,5,4,3,{4}2/6V85[4:1],{8}2,1V72[4:1],
,4,{4}5V74[4:1],{8}3,2V83[4:1],,3V15[4:1],
4,5,6,7,{4}8V27[4:1],{8}4,3V14[4:1],
,6,{4}7V16[4:1],{8}5,4V25[4:1],,5,
6,7,{32}8,7,6,5,4,3,2,1,{8}8/4,3<6[8:1],2,1,
8>3[8:1],7,6,5<8[8:1],4,3,2V83[4:1],1,
7V51[4:1],6,7,4,3,2>5[8:1],1,8,
7>2[8:1],6,5,4<7[8:1],3,2,1,1,
{32}7,6,5,4,3,2,1,8,7,6,5,4,3,2,1,8,{8}3/7,4-1[8:1],5,4/6,
7-3[8:1],8,7/1,8-5[8:1],,8/1,,2-5[8:1],
5V38[8:1],2,6,7,2/6,5-8[8:1],4,5/3,
2-6[8:1],1,2/8,1-4[8:1],,1/8,,7,
4,5,{32}2,3,4,5,6,7,8,1,{8}2/5,4,3,{16}6,5,
6,5,{8}6,{16}3,4,3,4,{8}3,{16}7,8,7,8,{8}7,
{16}1,8,1,8,1,8,1,8,3b,4,3,4,{8}3,{16}6b,5,
6,5,{8}6,{16}1b,8,1,8,{8}1,{16}6b,5,7pp4[2:1],3,4,2,
{2},3qq6[2:3],
,,,8pp5[2:3],
,,,{4}2pp5[2:3],
6,
7,8,{2}1h[4:1],
8h[4:1],{8}4/7qq8[4:7],{4},{8}4,
{16}4,{8},{16}3,{8},2,{4}2,1,
{1}1h[2:1],
{4}1>5[4:3],5,6,7,
,8<4[1:1],{8}3,{4},{8}2,
{4},1,{2}1>5[2:1],
,{4}8>5[4:3],8,
4,2,1<4[4:3],1,
5,7,{8}8h[8:3],{4},{8}5,
{6}5,4,3,2,{12},{4}1w5[2:1],
{1}1,
,,,,{4}1h[2:1],
5h[4:1],{32},2/6,3/7,4/8,5/1h[8:15],6,7,8,,2,3,4,5,6,7,8,
,2,3,4,5,6,7,8,,2,3,4,5,6,7,8,,2,3,4,5,6,7,8,,2,3,4,5,6,7,8,
,2,3,4,5,6,7,8,,2,3,4,5,6,7,8,{4},{8}7h[8:1],1h[4:1],
,3,4,5,,{16}6,2,5,3,4,2,
1,3,8,4,7,5,6,4,{8}8-5[8:1],5V71[8:1],8,2-5[8:1],
,2,,8h[4:1],,{16}1,7,{8}2h[8:1],{16}5,3,
{8}6h[8:1],{16}4,5,{8}2h[8:1],8,{4}8b/2V41[4:1],{8}6,7V53[4:1],
,8,1,2h[4:1],,{16}6,2,5,3,4,2,
1,3,8,4,7<1[8:3],5,6,4,{2}7b,
{16}8,8,8,8,8,8,8,8,8b,{8},{16}7b/1b,{8},2b/6b,
4h[8:1],{32}8b,7,{16}6,{8}2h[8:1],{32}7b,6,{16}5,{4}3V51[4:1],{8}3/7,6V48[4:1],
,6,1,2h[4:1],,{16}7,3,8,2,1,3,
4,2,5,1,6,8,7,5,{8}8-4[8:1],4V25[4:1],8,1,
,1,,1h[4:1],,{16}8,2,{8}7h[8:1],{16}4,6,
{8}3h[8:1],{16}5,4,{8}7h[8:1],1,{4}1b/7V58[4:1],{8}3,2V46[4:1],
,1,8,7h[4:1],,{16}3,7,4,6,5,7,
8b,6,1,5,2,4,3,5,{8}2V48[4:1],6,2,7,
,7,1,2,3/7V51[4:1],{16}1,1,{8}7,2,
,3,8-3[8:1],2,8-5[8:1],{16}4,4,{8}8,{16}3V52[4:1],3,
{8},5,6,7,8b/1b,{16}6,5,7,4,5,2,
4,3,6,5,8,1,4,3,{8}7V51[4:1],2,7,2,
,2,8,7,6/2V48[4:1],{16}8,8,{8}2,7,
,6,1-6[8:1],7,1-4[8:1],{16}5,5,{8}1,{16}6V47[4:1],6,
{8},4,3,2,1b/8b,{16}6,5,7,4,5,2,
4,3,6,5,8,1,4,3,{4}6V85[4:1],{8}2,1V72[4:1],
,4,{4}5V74[4:1],{8}3,2V83[4:1],,3V15[4:1],
4,5,6,7,{4}8V27[4:1],{8}4,3V14[4:1],
,6,{4}7V16[4:1],{8}3,2,,2v5[8:1],
5V38[4:1],2,7,6,{4},{8}7h[8:3],8,
1s5[4:15],2,{2},{8}2,1,
8z4[4:11],7,
E
