&title=Bring Me Back
&artist=Zekk
&first=0.96
&des=Drelxyse
&lv_5=13+
&inote_5=(185)
{8},,3h[1:1]/6h[1:1],,,,,,,,,,B2,E4,
{8}6h[4:1],,
{8},E7,E8,,1h[4:1],,,,
{4}8>6[4:3],,,,3-1-7-5[4:3],B6,B8,B2,
{8}3h[4:1],,,,E7,E6,E5,E3,,B7/E8,B3/E4,,4h[4:1]/6-8[8:1],,,,
{4}2hx[2:1]/7hx[2:1],,,,
{8}1/2,7b/8b,,,6/5,4b/3b,Cf,,
{8}6-8[8:1],,2/6,,2-4[8:1],1,2,,
{8}8-2[8:1],7-5[8:1],8,7,3-1[8:1],7,3,,
{8}6-8[8:1]/3,,6/4,,3-5[8:1],7,3,,8/2,7,1/6,2,7^5b[8:1],1,7/2,,
{8}3/4,,2/4-6[8:1],,4/2-4[8:1],2,2,,7-5[8:1],3,7-3[8:1],2,7-1[8:1],1,7x/4,,
{8}6/2,,6-8[8:1]/2-4[8:1],,6^4-7b[4:1]/2^8-3b[4:1],,6/2,,
{8},,B1/E2f/B2,,B7/B8/E8f,,B3/B4/B5/B6/E5f,,
{16}2/1,,2,,8/7,,7,,3v4[8:1],8,3,7,3,,,,
{16}6/5,,6,,4/3,,3,,7v8[8:1],4,7,3,7,,,,
{16}2x/1x,,6,,8x/7x,,3,,5-1[8:1],4,5,4,5,,,,
{8}2/3,3,3,4/5,4,4,6h[8:1]/7h[4:1],,
{8}1>5[2:1],,6,,8,,8q6b[4:1],,1x/8x,,,,2<5[2:1],,3,,4h[4:1],,,,7-4[4:1],,4-8b[4:1],,
{8}B3/B2/E3,,,,Ch[4:1],,2>1[2:1],,1,,1<3b[2:1],,3x,,3-6z2[2:1],,
{2}7h[4:1],8b,
{8}8<6[8:1],,8/2v5v2b[4:1],2,,,,,
{8}3/5^3[8:1],,5/6-1-6b[4:1],6,,,3h[1:1],,
{8}B5,,B6,,B8,,7h[4:5],,
{8}B4,,B3,,B2,,B1,,
{4}1-3-6[2:1],4x,6-8-4b[2:1],8x,1,7x,
{8}2h[4:1]/8,,6,,3,4,3,6,1h[8:1]/7h[4:1],,3,,6,5,6,3,2x/7x,2/7,2/7,,
{16}8,7,6,1,2,3,,,
{24}5x,4x,5x,4x,5x,4x,
{16}5x,4x,,,
{4}3^5-2-5[2:1]/7^1-6-1[2:1],3/7,,,
{8}3/7-5[8:1],2-4[8:1]/8,7-1[8:1],2v5[8:1],7-3b[8:1],2,7,,
{8}4/5,6,4-7[8:1]/5-7[8:1],3,4-2[8:1]/5-2[8:1],,4/5,,
{8}8^2[8:1],7-5[8:1],8,7,8v3[8:1],7-4[8:1],8,7,
{8}2-7[8:1],,2-5[8:1]/6-1[8:1],,2/6-3^8[4:1],,6,4hx[4:1],
{8},7-3[8:1],,7,4v1[8:1],5,4,,
{8}8x-6[8:1]/8x-5[8:1],,1/8-2[8:1]/8-3[8:1],,8-4b[8:1],,8h[4:1],,
{8}5x^2[8:1],,1-5[8:1],1,8^5[8:1],,3,2-5v8-3b[4:3],
{8},2x,7h,7h,6h,6h,5h,5h,
{8},7/8,6,2-6[8:1],1/3,2,8-5[8:1],1/7,
{8}8-4b[8:1]/3^1b[8:1],,8/3-5[8:1],,3/7-1b[8:1],,4x/7,,
{8}4-2[8:1],3,4/6,6,
{16}2/5-7[8:1],,3,,2-8[8:1]/5-3[8:1],,
{8},2/5,,
{8}2h[8:1]/5h[8:1],,7V15[4:1]/4V26[4:1],,4/7,,
{8},1x/2x,8,1/3,5v2[8:1]/5v8[8:1],4/6,5,,
{8}7h[8:1],4h[8:1],6h[8:1],2h[8:1],5h[8:1],1h[8:1],Cf,,
{8}1,,2-5-2[4:1]/8-6-8[4:1],1/3,,,,,8,,7-3-7b[4:1]/1,8/6,,
{16},,B1,C,B5,,
{8}4h[8:1],7h[8:1],6h[8:1],8h[8:1],1h[8:1],4h[8:1],5h[8:1],7h[8:1],
{8}3h[8:1],1h[8:1],2h[8:1],4h[8:1],8h[8:1],6h[8:1],4h[8:1],2h[8:1],
{8}3h[8:1],7h[8:1],5h[8:1],8h[8:1],2h[8:1],6h[8:1],1h[8:1],5hx[8:1],
{8}3h[16:1],3h[16:1]/4h[16:1],6h[16:1],6h[16:1]/5h[16:1],1v3-5[4:1]/1v7-5[4:1],2h[16:1]/8h[16:1],1x,,
{8},2h[8:1],3h[8:1],1h[8:1],8h[8:1],5h[8:1],4h[8:1],2h[8:1],
{8}6h[8:1],8h[8:1],7h[8:1],5h[8:1],1h[8:1],3h[8:1],5h[8:1],7h[8:1],
{8}6h[8:1],2h[8:1],4h[8:1],1h[8:1],7h[8:1],3h[8:1],8h[8:1],4h[8:1],
{8}7,5/6,2,3/4,
{16}5x,4x,5x,4x,2h[8:1]/7h[8:1],,,,
{16}1,8,2,8,1,,4,3,5,3,4,,8,7,8,,
{16}6,5,6,4,6,,2,4,2,4,2,,8,1,8,,
{16}3,4,2,4,2,,6,5,7,5,7,,1,8,1,,
{16}7,3,6,4,5,,3,4,2,5,1,,7,8,7,,
{16}2,6,3,5,4,,6h[8:3]/4,
{32}3,2,
{8}1x,1x,1x,,
{16}7,3,6,4,5,,3h[8:3]/5,
{32}6,7,
{8}8x,8x,8x,,
{16}2,1,2,8,2,7,2,6,2,5,3,5,4<4<1b[37#24:31],5,4x,5hx[16:7],
{32}A3,D3,A2,D2,A1,D1,A8,D8,A7,D7,,,
{8}4hx[8:5],,,,,
{1}Cf,,,,,,,
{8}2b/6b,4b/8b,,,7x-5[8:1]/3x-1[8:1],7x/3x,,,
{1}8>4<1b[4:15]/4v1[1:1],,6V42[1:1],,
{4}4h[1:1],B6,B8,B2,8h[1:1],E3,E5,E7,
{8}2,3,6,7,4h[8:1]/8h[8:1],,
{16}3p6[4:1]/6,,3x/6x,,
{8},,B1/E2/B2,,B7/B8/E8,,B3/B4/B5/B6/E5,,
{1}Chf[2:5],,,
{16}1/5-7[8:1],,2,2,5,,,,
{4}8^5[8:1]/3,2,1^6[8:1],3,2^7[8:1],4v5[8:1],1b,
{4},1^4[8:1]/6,7,8^3[8:1],6,7^2[8:1],4p2[4:1],4/6,
{4},1-3^4[4:1],4-8[4:1],8-6^5[4:1],5-1[4:1],8,6h[8:1],7h[8:1]/3h[8:1],8w4[8:1],8b,,
{8}4-2-8-4[2:1],,5-8-5b[4:1],5x,,,,,
{8}8V61[4:1],,1-4-1b[4:1]/8,2x,,,C,,
{4}5h[4:3],1x,E8/B8,B2/E3,2-5[4:1]/5,E1/B1,B6/E7,
{8}3x/7,2,
{4}1hx[4:3]/7,5,8,4,
{32}6h[4:1]/D3,A3,,,,,,,D2,A1,,,,,,,
{8}78,78,45,45,2x/6,2,2/7,2,2/8x,8,8/3,4,6/4x,4,4/5,5,5x/2,5/2,5/1x,5x/1,
{16}6,5,7,3,4,2,,,
{24}8x,1x,8x,1x,8x,1x,
{12}1x,8x,1x,
{4}6^4-7-4b[2:1]/2^8-3-8b[2:1],6/2,,,
{8}2x-8[8:1]/6x,3/7-5[8:1],2-5[8:1],7V15[4:1],2,7,3,3,
{4}2-4[8:1]/7-4[8:1],2^7[8:1]/7,2/6-3[8:1],2/6,
{8}2/7-5[8:1],8xV24[8:1]/1,7x-3[8:1],8,7,,6^1[8:1]/2^5[8:1],2x,
{4}2/6-2[8:1],6/8-6[8:1],8/3-7-3b[4:1],
{24}3b/1b,8,7x,6,5,,
{4},
{24}4bh[4:1]/3b,2,1,8,7,6,
{4},
{24}4b/5b,3/6,2/7,1h[8:1]/8h[8:1],,,
{4},
{24}1b/8hb[4:1],2,3,4,5,6,
{8},7/5,4V25[4:1]/6V85[4:1],3/5,4/6,,
{4},
{18}8h[9:1]/7,6,,1h[9:1]/2,3,,4bV63[8:1]/8bV27[8:1],7/3,2/6,
{8},,,
{32}E3/E7,A2/A6,,,
{8},1v4[8:1]/5v8[8:1],8/4,1/5,
{8},7x-1[8:1]/3x,6/2-4[8:1],7-4[8:1],2-6[8:1],7,2,8,
{4}7-5[8:1]/2-5[8:1],7^2[8:1]/2,7/3-6[8:1],8/3,
{8}7/2-4[8:1],1xV75[8:1]/8,2x-6[8:1],1,2,,3^8[8:1]/7^4[8:1],7,
{4}7/3-7[8:1],3/1V35[8:1],1/6-1-6b[4:1],
{32}6b/4bx,3,2,1x,2x,3,4,,
{4},
{32}3bh[4:1]/5b,6,7,8x,7x,6,5,,
{4},
{32}7b/3b,6/2,5/1,8/4,7,6,5,4V28[4:1],
{4},
{32}4b/8b,7,6,5,4hx[8:1],,,,
{4},
{32}6h[4:3]/E8f,A8,E1,B1,B2,E3,A3,E4,
{4},,
{16}3x,5x,4,5,2,5,4,5x,
{32}4hx[16:7],E6,E7,E8,E1,E2,E3,E4,E5,D6,E7,D8,E1,D2,,,
{4}Chf[4:1],,
{8}3b,4,2/5,3,4,3/5,4,3,2-6[8:1],2,1,8,7-4[8:1],7,1x,,3/5,6,4/7,6,5/7,4,8,7/2,6-2[8:1],6,5,4,3-8[8:1],3,5hx[8:1],,
{8}7-5[8:1],7,4,3,2-8[8:1],2,4,5,6-3[8:1],6,8,1,2-7[8:1],2,6,,
{32}5h[64:1],E6,E7,,
{8},4-7-4[4:1]/4-1-4[4:1],4b,,,,,
{32}3h[64:1],E3,E2,,
{8},5V31V35[4:1]/5V71V75[4:1],4b/6b,,,,,
{8}7h[8:1]/3,2,6h[8:1]/8,1,3h[8:1]/5,6,2h[8:1]/8,7,6h[8:1]/1,1,6h[8:1]/3,3,8h[8:1]/2,2,8h[8:1]/4,4,
{8}6-8[8:1],6,2-4[8:1],2,6-4[8:1],6,2,1,7/2h[8:1],7,7/1h[8:1],7,7/4h[8:1],7,7/5h[8:1],7,
{8}2^5[8:1],1,8,7^2[8:1],6,5,4^7[8:1],3,2,1-3[8:1],8-6[8:1]/2x,1V38-4b[4:1],8x,1,5h[8:1],,
{16}3h[64:1],6,3h[64:1],6,4h[64:1],5,4h[64:1],5,3h[64:1],4,2h[64:1],5,1h[64:1],6,1h[64:1],7,
{32}8bh[64:1],E1,E2,E3,E5/B4,E6,E7,,3b,2,1,8h[32:9],7b,6,5,4h[32:5],
{4},C,
{2}5x-1[4:27]/1xw5b[6.607#128:9],A2,A8,D3,D8,A3,A7,D4,D7,A3,A7,E3,E8,A5,Ch[2:3],,,,
E
