&title=Einherjar Joker
&artist=DJ Genki/Gram
&first=0.055
&lv_5=14+
&des_5=The_Stand_Tree
&inote_5=
(222){4},{16},,,,,,,,,,,,7h[4:3]/E2,
B2,{8}B3,,,,,,,{1}4,
{16}2h[4:3]/E8,B7,{8}B6,,,,,,,{1}5,
{16}5h[4:3]/B4,B3,B2,B1,{4}E1,,,{2}8h[2:1],
6h[4:3],
{1}2h[1:1],
{2}7h[1:1],{8}8,1,2,3,
{1}4h[1:1],
{2}6h[2:1],3h[2:1],
5h[2:1],3h[2:1],
{4}7h[2:1],,,4,
8h[2:1]/4h[2:1],,,3,
7h[2:1]/3h[2:1],,,2,
{1}6h[4:3]/2h[2:3],
{16}B8,B1,B2,B3,B4,B5,B6,B7,B8,B1,B2,B3,B4,B5,B6,B7,
{8}B8/2b-6b[8:1],2b,,8b-4b[8:1],{4}8b,{8}1b-5b[8:1],1b,
{16}6,7,8,1,2,3,4,5,6/2,1,8,7,6,5,4,3,
{8}2bx/7bx-3b[8:1],7bx/2bx,,1b-5b[8:1],{4}1b,{8}8b-4b[8:1],8b,
{16}3,2,1,8,7,6,5,4,3/7,8,1,2,3,4,5,6,
{8}7bx/1bx-5b[8:1],7bx/1bx,,8b-6b[8:1],{4}8b,{8}3b-1b[8:1],3b,
{16}8,7,6,5,4,3,2,1,8/4,5,6,7,8,1,2,3,
{8}6bx/4bx-2b[8:1],6bx/4bx,,6b-8b[8:1],{4}6b,{8}5b-1b[8:1],5b,
,8b-4b[8:1],{4}8b,{8}2b,2b,5bx/1bx-3[8:1],1bx/5bx,
1bx-7[8:1],4x,1bx-3[8:1],4x,1bx-7[8:1],5x,1bx>3[8:1],5x,
1bx<7[8:1],6x,1bx-5[8:1],6x,1bx-3[8:1],7x,{4}1bx/8bx-6[8:1],
{8}8bx-2[8:1],5x,8bx-6[8:1],5x,8bx-2[8:1],4x,8bx<6[8:1],4x,
8bx>2[8:1],3x,8bx-4[8:1],3x,{4}8bx-6[8:1]*-2[8:1],8bx,
{16}3,4,3,4,3,4,3,4,3,4,3,4,{4}5bx/1b,
{16}6,5,6,5,6,5,6,5,6,5,6,5,{4}4bx/8b,
{16}2,1,3,8,{4}2b,{16}7,8,6,1,{4}7b,
{16}1bx,8,1,8,2bx,8,1,8,3bx,8,1,8,4bx,8,1,8,
{1}5bxh[2:3]/Cfh[4:7],
{8},,,,,,,,4/8,
8,7/3,7,6/2,6,5/1,5,
8-3[8:1],8,4-7[8:1],4,2-7[8:1],2,{4}6-3[8:1],
{8}6/1,1,2,2,3/7,3,4/8,4,
1-6[8:1],1,5-2[8:1],5,7-2[8:1],7,{4}3-6[8:1],
{8}3/8-4[8:1],1,8/2-6[8:1],1,2/7-3[8:1],8,7/1-5[8:1],8,
1/7,7,6,6,4/7,4,3/8,3,
2/1,2,2/3,2,2/4,2,2/5,2,
{16}2/6,,,7/3,,,{8}6/4,5/3,5/3,6/2,7/1,
2b/8b-5[8:1],2,8/2,2,3/8-4[8:1],3,3/8,3,
2/8-3[8:1],2,8/2,2,{4}1-5[8:1]/2-6[8:1],1/2,
{8}7/4-2[8:1],7,4/7,7,6/1-5[8:1],6,6/1,6,
6/1-6[8:1],7,1/7,7,{4}8-4[8:1]/7-3[8:1],8/7,
{16}5/2,6,{8}7,7/2,7,7/2,7,7/2,7,
{16}7/1,2,{8}3,3/7,3,3/6,3,3/5,3/6,
3/7,E8,,2,{4}E7,{8}1,E6,
{16}8,1,2,3,4,5,6,7,8/5,4,3,2,1,8,7,6,
{8}5b/1b,2,3/7p5[8:3],7,7/4,3,{4}2-7[8:1],
2b/6b-1[8:1],6b/8b-4[8:1],8b/7b-3[8:1],7b,
{8}1/4,5,6/2q4[8:3],2,2/5,6,{4}7-2[8:1],
7b/3b-8[8:1],3b/1b-5[8:1],1b/2b-6[8:1],2b,
{8}5/7,4,3/6,2,1/5,6,7/1,2,
3b/8b-4[8:1],7,8b/1b-5[8:1],2,1b/8b-4[8:1],7,8b/1b-5[8:1],2,
1b/8b,7,6,5,3,6,3,7,
3,3/8-5[8:1],,8,4,3,{16}2>5[8:1],6,2,7,
{8}2b,8,7,5,7,4,7,3,
7<4[8:1],7,2>5[8:1],2,7-1[8:1],7,2-4[8:1],2,
8,7,3/6,5,3,6,3,7,
2>5[8:1],2,7<4[8:1],7,2-8[8:1],2,7-5[8:1],7,
1,2,3,4,{16}6-8[8:1],5,6,4,{4}6b,
{8}4,3,2,1,{16}8-2[8:1],7,8,6,{4}8b,
{16}3>1[8:1],4,3,4,{4}3b,{16}6<8[8:1],5,6,5,{4}6b,
{16}1/5b,2,3,4,5/1b,6,7,8,1/5b,2,3,4,5/1b,6,7,8,
{12}1h[2:3]/E5,B5,{6}B6,{12},,E7,B7,{3}B8,
{12}E8,B7,{6}B6,{12},,E6,B6,B7,2,{24},{8}7x,
{12}8xh[4:3]/E2,B2,{6}B3,{12},,E3,B3,{3}B4,
{12}7h[4:3]/E4,B3,{6}B2,{12},,E3,B2,{3}B1,
{12}1h[4:3]/E7,B6,{6}B5,{12},,E8,B7,{3}B6,
{12}2h[4:3]/E1,B8,{6}B7,{12},,E5,B5,{3}B6,
{12}7h[4:3]/B1,B2,{6}B3,{12},,B2,B3,{3}B4,
{12}B8/Cfh[1:1],B7,{6}B6,{12},,B7,B6,{3}B5,
{8}6,,,3,7,,,3,
6/3,,,7,2,,,8,
1,,,2,7,,,6,
5/3,,,3,{2}4,
{8}2,,,6,1,,,2,
{2}3/8,{4}7,{8}6,5,
4,4,6,6,2,2,8,8,
3,3,7,7,1,1,5,5,
{1}2xh[2:7]/5-2-7-4-1-6-3-8-5[2:7],
{4},,,,,,,,,,,B2f/B1/B3,
{16}4,6,4,6,3,5,3,5,{8}2-5[8:1],{16}2,6,,,{8}7,
8-4[8:1],{16}8,3,,,{8}2,1-5[8:1],{16}1,6,,,{8}7,
{16}8b,4,8,4,7,3,7,3,6,2,6,2,5,1,5,1,
6,2,7,3,8,4,8,5,8,6,8,7,8,1,8,2,
8b<5b[8:1],,,4b,,,{8}3b,{16}2,4,2,4,1,5,1,5,
1b>4b[8:1],,,5b,,,{8}6b,{16}7,5,7,5,8,4,8,4,
{8}7/3,7/3,{16}6,4,{8}6,{16}3,5,{8}3,2/6,2/6,
{16}1,7,1,7,2,6,2,6,3,5,3,5,{4}4b-2b[8:1],
{8}4b/6b-8b[8:1],7bx,{4}6b,{8}7-4[8:1],{16}7,3,,,{8}2,
1-5[8:1],{16}1,6,,,{8}7,8-4[8:1],{16}8,3,,,{8}2,
{16}1b,5,1,5,2,6,2,6,3,7,3,7,4,8,4,8,
3,7,2,6,1,5,2,6,3,7,2,6,3,7,2,6,
1b-5b[8:1],,,5b,,,{8}6b,{16}7,5,7,5,8,4,8,4,
8b-4b[8:1],,,4b,,,{8}3b,{16}2,4,2,4,1,5,1,5,
{8}2/6,2/6,{16}3,4,{8}3,{16}6,5,{8}6,7/3,7/3,
{16}4,6,3,7,2,8,1,1,1,1,1,1,{4}1b,
{32}8,7,6,5,{16}4,8b,{32}1,2,3,4,{16}5,1b,{32}8,7,6,5,{16}4,8b,7,8,7,8,
7,6,7,5,7,4,7,3,6,2,5,1,{4}4b-8b[8:1],
{8}4b/1b-5b[8:1],1b,,8b-4b[8:1],{4}8b,{8}5b-1b[8:1],5b,
,4b<8b[8:3],{4}4b,{8}1b,2b,3b,4b,
5b-2b[8:1],5b,,8b-4b[8:1],{4}8b,{8}1b-5b[8:1],1b,
,7b<4b[8:3],{4}7b,{8}4b,3b,2b,1b,
{16}8,7,8,7,{8}8,{16}5,6,5,6,{8}5,{16}4,3,4,3,
{8}4,{16}1,2,1,2,{8}1,8/2,7/3,{16}4,6,{8}4,
{16}6,5,6,5,{8}6,{16}7,8,7,8,{8}7,{16}2,1,2,1,
{8}2,{16}3,4,3,4,{8}3,4/6,7/3,{16}8,2,{8}8,
{16}2,1,2,3,{8}2,{16}7,8,7,6,{8}7,{16}3,4,3,2,
{8}3,{16}6,5,6,7,{8}6,{16}2,1,{8}2,{16}3,4,{8}3,
{16}5,3,5,3,{8}5,{16}4,6,4,6,{8}4,{16}8,2,8,2,
{8}8,{16}1,7,1,7,{8}1,{16}8,8,8,8,{4}7/1,
{16}2,1,2,1,2,1,2,1,2,1,2,1,{4}4b,
{16}7,8,7,8,7,8,7,8,7,8,7,8,{4}5b,
{32}1,2,3,4,5,6,7,8,{4}1b,{32}8,7,6,5,4,3,2,1,{4}8b,
{16}8,1,8,1,7,2,7,2,{32}8,7,6,5,4,3,2,1,2h[64:1],3h[64:1],4h[64:1],5h[64:1],6h[64:1],7h[64:1],8h[64:1],1h[64:1],
{1}2h[64:1]/Ch[1:4],
E
